<?xml version="1.0" standalone="no"?>
<!DOCTYPE svg PUBLIC "-//W3C//DTD SVG 1.1//EN" "http://www.w3.org/Graphics/SVG/1.1/DTD/svg11.dtd" >
<svg xmlns="http://www.w3.org/2000/svg">
<metadata>
This is a custom SVG webfont generated by Font Squirrel.
Copyright   : Copyright c SIL International 20032008
Designer    : J Victor Gaultney and Annie Olsen
Foundry     : SIL International
Foundry URL : httpscriptssilorg
</metadata>
<defs>
<font id="webfontcmhaAZJD" horiz-adv-x="942" >
<font-face units-per-em="2048" ascent="1638" descent="-410" />
<missing-glyph horiz-adv-x="436" />
<glyph unicode=" "  horiz-adv-x="436" />
<glyph unicode="&#x09;" horiz-adv-x="436" />
<glyph unicode="&#xa0;" horiz-adv-x="436" />
<glyph unicode="!" horiz-adv-x="432" d="M49 74q0 29 12.5 61.5t32.5 59.5q18 23 51 43q31 18 66 18q45 0 70 -27q25 -29 24 -71q0 -37 -10 -66q-12 -37 -33 -61q-23 -29 -49.5 -45.5t-67.5 -16.5q-47 0 -71 29q-25 27 -25 76zM160 377l73 956l41 27q16 10 54 31q27 14 53 26q31 14 47 19l39 -27l-201 -1012 q-25 -16 -39 -24q-12 -6 -45 -19z" />
<glyph unicode="&#x22;" horiz-adv-x="823" d="M229 852l23 520q4 2 33 14l43 19q23 8 43 14l30 11l41 -23l-129 -539q-25 -12 -39 -14t-45 -2zM571 852l23 520q4 2 33 14l43 19q23 8 43 14l30 11l39 -23l-127 -539q-18 -12 -39 -14q-14 -2 -45 -2z" />
<glyph unicode="#" horiz-adv-x="858" d="M51 496q4 10 10 22q4 6 6.5 13.5l4.5 13.5l14 26q6 15 12 25h158l94 246h-143l-19 22l9 21q8 20 14 33l25 49h161l109 284q22 15 49 25q39 14 47 16l23 -22l-115 -303h172l106 284q22 15 50 25l49 16l22 -22l-114 -303h141l18 -27q-2 -4 -5 -13t-5 -12q-2 -6 -6 -14 l-6 -12l-8 -15.5l-6 -11.5l-11 -20h-162l-92 -246h146l18 -29q-2 -6 -10 -22q-6 -12 -12 -27q-4 -10 -12.5 -26.5t-10.5 -22.5h-168l-112 -299q-18 -16 -46 -25q-27 -10 -53 -18l-20 20l121 322h-172l-113 -299q-18 -16 -45 -25q-27 -10 -53 -18l-25 20l123 322h-139z M369 596h172l94 246h-172z" />
<glyph unicode="$" horiz-adv-x="858" d="M-14 117q0 14 12 39q10 20 31 51q12 18 37 47q18 20 32 20q12 0 29 -24q12 -18 41 -55q27 -33 61 -60q33 -25 90 -35l68 492l-27 12q-127 59 -180 127t-53 152q0 61 23 112q27 59 67 101q51 51 111 82q66 35 149 47l17 112q4 2 11 7.5t9 7.5t14 8l13 6q12 6 20 8l27 -24 l-19 -119h2q70 0 144 -27q63 -23 116 -59q6 -4 -6 -29q-16 -33 -28.5 -51l-36.5 -51q-18 -23 -29 -31l-39 6q-27 49 -55 76q-37 35 -82 49l-55 -381q63 -31 121 -67q55 -35 86 -70q37 -39 51 -82q16 -45 16 -96q0 -80 -26 -148q-25 -63 -80 -129q-49 -57 -119 -100 q-63 -39 -156 -59l-14 -117q-23 -18 -33 -23q-16 -6 -39 -12l-22 23l14 116h-10h-13q-39 0 -88 13q-47 12 -96 34q-41 18 -76 47q-30 25 -30 54zM268 950q0 -20 6 -41q4 -16 23 -41q12 -18 45 -43q41 -31 74 -49l49 348q-37 -2 -80 -20q-39 -16 -63.5 -41t-39 -53.5 t-14.5 -59.5zM412 102q43 8 84 31q39 20 67 53q33 35 45 70q16 43 17 86q0 61 -35 109q-33 45 -117 96z" />
<glyph unicode="%" horiz-adv-x="1337" d="M100 821q0 47 13 97q14 61 30 94q23 49 52 86q33 43 67 71q37 31 84 50q46 18 98 18q43 0 88 -20q40 -18 68 -56q29 -39 43 -84q16 -53 16 -104q0 -68 -24.5 -141.5t-67.5 -135t-106.5 -100.5t-143.5 -39q-51 0 -90 21q-41 23 -67 57q-29 39 -43 84q-17 53 -17 102z M104 0l981 1192q25 12 31 14t17.5 6.5t17.5 6.5t17.5 5t17.5 5t31 8l24 -33l-981 -1192q-16 -8 -29 -12q-4 -2 -16 -7t-20 -7q-6 -2 -19.5 -5.5t-19.5 -5.5l-31 -10zM256 797q0 -82 26.5 -121t71.5 -39q31 0 52 18q27 23 38 47q14 29 27 66q16 47 21 78q8 57 10 74 q4 49 4 65q0 90 -29 131q-27 39 -69 39q-35 0 -56 -18q-23 -20 -39 -52q-12 -25 -26 -71q-12 -40 -19 -80q-8 -55 -10 -76q-2 -24 -2 -61zM684 236q0 68 25 141q25 72 69 133q43 57 109 98q63 39 141 39q49 0 88 -18.5t70 -55.5q29 -35 43 -81q14 -45 14 -107 q0 -76 -22.5 -143.5t-69.5 -135.5q-41 -57 -107 -98q-63 -39 -141 -39q-51 0 -90 21q-43 25 -68 55q-31 41 -45 86q-16 54 -16 105zM842 209q0 -82 24.5 -121t71.5 -39q29 0 51 19q27 23 39 47q20 41 29 65q12 37 18 76q8 55 10 76q4 49 5 65q0 86 -29 131q-27 41 -68 41 q-31 0 -55 -20q-16 -14 -39 -51q-14 -23 -29 -72q-8 -27 -16 -80q-8 -55 -10 -76q-2 -24 -2 -61z" />
<glyph unicode="&#x26;" horiz-adv-x="1222" d="M68 360q14 111 100 220q84 106 235 215q-18 71 -24 141q-6 68 4 137q12 86 45 150q37 74 84 120q49 49 112.5 78t127 29t102.5 -20q41 -23 64 -58q25 -39 30 -80q6 -47 0 -96q-10 -55 -35 -100q-29 -51 -67 -97q-43 -49 -92 -90q-52 -43 -111 -80l-55 -36 q43 -119 119 -250q57 -100 149 -226q55 82 72 168q6 46 0 86q-4 33 -25 68q-14 27 -40.5 43t-51.5 16l-18 29l16 16q4 4 20 17l23 16l20 10h414l21 -38q-8 -10 -56 -58q-12 -12 -53 -43q-27 16 -72 29q-37 10 -73 14q14 -31 14 -69q0 -55 -4 -95q-8 -66 -47 -141 q-39 -78 -96 -147q39 -47 81 -91q63 -70 170 -45l5 -53l-82 -33q-68 -27 -70 -26q-12 -4 -30.5 -8.5t-24.5 -6.5q-23 -6 -33 -6q-16 0 -62 35q-33 27 -96 96q-74 -57 -172 -96q-86 -35 -192 -35q-82 0 -158 27q-68 25 -117 76t-65 121q-18 73 -6 167zM248 381q-9 -71 6 -123 q14 -51 47 -90q31 -37 74 -55.5t92 -18.5q66 0 133 23q55 18 117 59l-78 109q-33 49 -76 123q-16 29 -69 135q-29 59 -58 139q-90 -74 -135 -150q-41 -65 -53 -151zM535 1014q6 -68 22 -123q70 43 102 70q31 27 68 71q27 31 39 68q12 35 18 63q6 41 4 68q-4 33 -14 55 q-12 25 -34.5 37t-53.5 12q-37 0 -59.5 -16t-42.5 -47q-18 -27 -31 -66q-8 -27 -16 -76q-8 -50 -2 -116z" />
<glyph unicode="'" horiz-adv-x="432" d="M229 852l23 520q4 2 33 14l43 19q14 6 43 14q8 2 17 6.5t13 4.5l41 -23l-129 -539q-25 -12 -39 -14t-45 -2z" />
<glyph unicode="(" horiz-adv-x="612" d="M104 336q-8 137 15 307q20 156 75.5 315.5t125 278.5t169.5 219q96 96 201 148l29 -56q-70 -53 -131 -133q-63 -82 -119 -192q-49 -98 -96 -250q-41 -133 -64 -297q-20 -141 -20 -287q0 -156 18 -260q23 -127 59.5 -221t100.5 -168l-45 -55q-98 53 -164 149 q-66 94 -106 225q-38 119 -48 277z" />
<glyph unicode=")" horiz-adv-x="612" d="M-86 -260q68 51 131 131q57 72 119 190q51 98 96 242q45 139 66 297q18 123 18 287q0 137 -18 264q-18 121 -60 227q-41 102 -98 170l45 56q96 -55 164 -154q61 -90 104 -227q37 -121 47 -283q8 -139 -14 -309q-22 -166 -74 -314q-53 -147 -127 -272q-76 -125 -168 -215 q-98 -94 -202 -145z" />
<glyph unicode="*" horiz-adv-x="729" d="M-6 956l10 48l309 129l-254 118q3 12 7 31l8 37q2 8 5 18.5t5 18.5q4 18 8 26l43 23l219 -207l4 309q2 2 12.5 7.5l14.5 7.5q18 10 35 16q29 12 33 14l28 9l33 -25l-88 -338l256 193q8 -6 20 -17q8 -6 25 -22q12 -12 25 -23q12 -12 16 -18l-6 -45l-311 -131l254 -117 q-3 -12 -7 -31l-8 -37q-2 -12 -10 -37q-4 -12 -8 -28l-43 -23l-219 207l-4 -307l-29 -14q-20 -12 -33 -17q-8 -2 -20.5 -8t-14.5 -6q-6 -2 -16 -5l-10 -3l-31 22l88 338l-256 -192q-4 4 -23 18q-6 6 -13 10t-13 10q-4 4 -12.5 11.5t-12.5 11.5q-12 12 -16 18z" />
<glyph unicode="+" horiz-adv-x="784" d="M70 526l10 25l12 24l12 27q2 6 6.5 11t6.5 12h237l39 270q6 2 23 6q6 2 12 5t14 5l29 9q18 6 23 6l22 -25l-39 -276h240l18 -27q-2 -12 -8 -23q-4 -8 -12 -28q-6 -14 -13 -27q-4 -6 -7 -11t-5 -9h-231l-37 -269q-2 -2 -6 -3t-8.5 -3t-8.5 -4q-10 -4 -26 -8 q-6 -2 -16.5 -5t-12.5 -3q-16 -4 -22 -6l-23 24l39 277h-248z" />
<glyph unicode="," horiz-adv-x="432" d="M-16 -289q76 78 114 154q39 74 39 127q0 18 -6 36.5t-18.5 31t-32.5 18.5q-25 6 -51 4l-9 55q8 10 46 31q20 12 69 33q10 4 72 26q35 12 53 13q10 -6 31 -21q10 -8 20 -24q9 -15 13 -37q4 -29 4 -52q0 -31 -13 -67q-10 -31 -34 -80q-10 -20 -52 -84q-23 -35 -63 -80 q-45 -49 -70 -69q-45 -37 -69 -54z" />
<glyph unicode="-" horiz-adv-x="653" d="M39 477q20 45 20 47l27 45h489l23 -24q-20 -47 -23 -51l-22 -43h-494z" />
<glyph unicode="." horiz-adv-x="432" d="M49 74q0 29 12.5 61.5t32.5 59.5q18 23 51 43q31 18 66 18q45 0 70 -27q25 -29 24 -71q0 -37 -10 -66q-12 -37 -33 -61q-23 -29 -49.5 -45.5t-67.5 -16.5q-47 0 -71 29q-25 27 -25 76z" />
<glyph unicode="/" horiz-adv-x="841" d="M-111 -309l902 1853q12 9 30 19q12 6 37 14l37 12q27 8 33 10l35 -24l-900 -1856l-28 -14q-6 -4 -20.5 -9l-20.5 -7q-18 -8 -41 -15l-33 -10z" />
<glyph unicode="0" horiz-adv-x="858" d="M43 422q0 135 27 268q25 127 100 271q31 59 70 106q49 59 84 88q47 39 102 59q53 20 117 21q70 0 123 -33q57 -35 92 -92q41 -68 57 -143q18 -82 19 -183q0 -65 -7 -135q-6 -76 -20 -139.5t-41 -140.5q-20 -55 -64 -133q-41 -66 -71 -105q-35 -43 -86 -84 q-43 -35 -99 -57q-49 -20 -112 -21q-70 0 -127 35q-51 31 -90 96q-37 61 -56 144q-18 83 -18 178zM223 426q0 -169 43 -252q43 -84 121 -84q51 0 94 39q39 37 70 96q31 61 49 137q18 77 31 154q14 86 16 152q4 98 4 127q0 80 -12 141q-12 57 -34.5 100t-51.5 60 q-31 18 -61 18q-57 0 -97 -37q-41 -39 -71 -98q-31 -61 -50 -139q-18 -77 -30 -154q-14 -86 -17 -145q-4 -90 -4 -115z" />
<glyph unicode="1" horiz-adv-x="858" d="M66 0l8 63q78 10 121 21q63 16 79 22q31 12 43.5 24.5t14.5 23.5l104 776q8 53 8 61q0 20 -10 37q-8 8 -18 10t-43 2q-29 0 -72 -6q-47 -6 -102 -20l-15 61q57 18 99 33l120 45l117 49l88 43l31 -37l-143 -1054q-4 -10 6 -23q8 -10 33 -22q27 -14 65 -25q37 -10 111 -21 l-11 -63h-634z" />
<glyph unicode="2" horiz-adv-x="858" d="M-2 74q180 180 303 321q133 154 201 248q68 96 108 191q33 78 33 143q0 70 -41 115q-40 43 -117 43q-35 0 -65 -21q-35 -23 -51.5 -47.5t-30.5 -65t-16 -71.5q-37 -23 -70 -35q-37 -14 -82 -21l-23 44q6 49 45 108t94.5 102t129.5 76q72 31 145 31q53 0 100.5 -12.5 t79.5 -38.5q35 -29 55.5 -70t20.5 -102q0 -49 -10 -88q-12 -49 -39 -101q-23 -45 -76 -123q-45 -66 -114 -151q-51 -63 -164 -187l-219 -229h370q18 0 29 8q8 6 24 23q10 10 21 31q4 6 8 17t8 17q14 33 29 95l53 -15l-55 -309h-670z" />
<glyph unicode="3" horiz-adv-x="858" d="M-6 125l43 76q31 -29 69.5 -55.5t63.5 -36.5q33 -12 59 -19q20 -4 66 -4q63 0 113 25q53 27 86 67q37 45 53 101q18 58 18 122q0 53 -16 97q-15 40 -43 67q-27 27 -59.5 39t-71.5 12h-19q-2 0 -6 -1t-6 -1t-6 -1t-6 -1l-21 -4l-6 72q70 20 113 41q57 27 92 59 q41 39 61 84q23 51 23 113q0 23 -8 59q-6 29 -23 51q-14 20 -43 35q-25 12 -59 13q-27 0 -60 -15q-25 -10 -45 -35q-20 -23 -28 -53q-10 -35 -11 -63q-39 -23 -75 -33q-43 -14 -82 -16l-23 41q6 39 41 90q27 39 86 88q49 41 117 69q61 27 135 27q66 0 115 -18q45 -16 78 -54 q29 -33 45 -76q14 -41 14 -86q0 -55 -18 -100q-20 -51 -48 -86q-25 -33 -73 -67q-35 -25 -90 -50q49 -6 86 -30q35 -23 63 -62q25 -33 41 -82q14 -43 14 -96q0 -98 -32 -178q-37 -90 -93 -146q-61 -61 -143 -98q-83 -37 -184 -37q-71 0 -148 37q-71 35 -149 119z" />
<glyph unicode="4" horiz-adv-x="858" d="M16 381l551 790q6 2 39 15.5t49 21.5l74 37l31 -37l-103 -745h115l23 -31q-27 -35 -47 -51l-43 -37h-64l-31 -229q-2 -8 4 -15q10 -10 19 -14q20 -10 37 -16q12 -4 59 -17l-6 -53h-473l6 53q88 16 100 21q35 8 59.5 18t30.5 17q10 10 13 16l26 219h-440zM184 463h320 l78 557z" />
<glyph unicode="5" horiz-adv-x="858" d="M0 123l45 74q55 -41 84 -58q43 -25 68 -35q41 -16 59 -18q37 -4 55 -4q66 0 119 31q49 29 86 82q33 49 49 114q16 70 17 129q0 49 -13 90q-12 39 -41 72q-31 33 -63 47q-39 16 -86 17q-55 0 -113 -23q-51 -20 -108 -61l-37 32q10 37 24 84q10 31 29 103l31 110l15 59.5 l13 51.5q8 29 13.5 54.5t11.5 47.5q10 41 18 82h424q33 0 48 2q6 2 32 6q14 2 31 11l25 -31q-8 -12 -29 -37l-33 -37q-10 -10 -18 -17t-17 -16q-18 -18 -26 -24h-365l-16 -74q-4 -18 -7 -29.5t-8.5 -25.5t-9.5 -33l-22 -84q-12 -40 -19 -61q29 12 88 22q47 8 103 8 q74 0 129 -24q59 -27 96 -70q41 -47 57 -98q18 -55 18.5 -114.5t-12.5 -121.5q-10 -53 -38 -116q-25 -53 -64 -107q-37 -49 -86 -86t-108.5 -57.5t-131.5 -20.5q-86 0 -165 37q-82 37 -152 117z" />
<glyph unicode="6" horiz-adv-x="858" d="M63 360q0 102 23 211q18 92 68 197q41 88 110 174q68 82 148 145q74 57 184 105q98 41 219 57l8 -69q-113 -23 -198.5 -70t-155.5 -117q-63 -63 -113 -151q-46 -83 -73 -178q68 61 129 85.5t116 24.5q66 0 113 -20q55 -25 86 -58q33 -35 51 -92q18 -55 19 -121 q0 -47 -15 -114q-12 -53 -37 -115q-23 -53 -61 -109q-35 -49 -84 -92q-45 -39 -102.5 -61.5t-121 -22.5t-124.5 29q-53 25 -98 80q-39 47 -66 123q-25 69 -25 159zM242 373q0 -66 14 -129q12 -51 37 -90q23 -35 57 -54q31 -16 76 -16q39 0 67.5 16.5t51 45t37.5 63.5 q15 37 24 74q12 49 15 77q4 53 4 70q0 70 -15 111q-14 43 -39 69q-23 25 -51 35q-25 8 -55 8q-53 0 -104.5 -26.5t-106.5 -87.5q-8 -51 -10 -82q-2 -27 -2 -84z" />
<glyph unicode="7" horiz-adv-x="858" d="M129 928l16 61l7.5 26.5l6.5 23t7 28.5q6 23 12 43t10 35q16 51 21 59h668l24 -37l-115 -219l-110 -215l-105 -209l-92 -188l-78 -164q-35 -74 -57 -127q-31 -23 -82 -43q-57 -23 -94 -33l-35 35l180 291l152 264l135 252l133 250h-414q-16 0 -26 -2q-16 -4 -33 -17 q-18 -14 -39 -45q-20 -29 -49 -90z" />
<glyph unicode="8" horiz-adv-x="858" d="M33 250q0 61 26 125q27 66 66 108.5t96 87.5q45 35 109 70q-23 14 -64 43q-27 18 -51 53q-29 41 -37 66q-12 37 -12 86q0 74 31 137q27 55 86 109q52 46 123 73q68 27 145 27q68 0 117 -18q55 -20 84 -48q34 -31 49 -73q16 -45 16 -95q0 -57 -20 -100q-23 -47 -52 -82 q-31 -37 -73 -69q-37 -29 -82 -58q31 -18 72 -51q39 -33 61 -61q25 -31 41 -80q16 -45 16 -103q0 -86 -37 -161q-39 -80 -98 -138q-66 -61 -141 -94q-82 -35 -168 -35q-76 0 -133 23q-59 23 -94 61q-39 43 -58 90q-18 50 -18 107zM211 274q0 -43 12.5 -79.5t36.5 -61.5 q29 -29 55 -41q31 -14 72 -14q52 0 92 24q39 25 66 60q23 29 41 86q14 43 14 94q0 57 -16 92q-18 41 -45 70q-25 27 -64 53q-25 16 -74 45q-49 -37 -79 -65q-37 -37 -60 -74q-25 -40 -37 -86q-14 -54 -14 -103zM319 940q0 -39 16.5 -67.5t43.5 -53.5q25 -20 61 -45 q12 -8 74 -41q37 29 55 47q29 27 43 54q20 33 29 65q10 37 10 76q0 78 -43 119q-45 41 -116 41q-35 0 -68 -16.5t-55 -45.5q-23 -31 -35 -61q-15 -39 -15 -72z" />
<glyph unicode="9" horiz-adv-x="858" d="M74 27q121 29 211 75q92 49 159 117q66 66 113 154q45 84 70 186q-51 -53 -117 -88t-139 -35q-61 0 -112.5 22.5t-84.5 61.5q-35 43 -53 92q-18 51 -19 113q0 51 16.5 116.5t43 119t69.5 106.5q41 51 88 86q51 39 109 59q61 23 121 23q57 0 113 -23q52 -22 92 -67.5 t61 -116.5q23 -74 23 -166q0 -172 -50 -325q-47 -147 -145 -275q-96 -125 -235 -203q-143 -82 -326 -102zM274 770.5q0 -65.5 15 -102.5q14 -41 41 -66q23 -25 51 -33q31 -10 53 -10q61 0 119 37q51 33 94 88q10 82 10 158q0 68 -14 133q-10 47 -35 86q-18 29 -51 47 q-27 14 -57 14q-63 0 -109 -35q-47 -37 -69 -86q-25 -51 -37 -114q-11 -51 -11 -116.5z" />
<glyph unicode=":" horiz-adv-x="432" d="M49 74q0 29 12.5 61.5t32.5 59.5q18 23 51 43q31 18 66 18q45 0 70 -27q25 -29 24 -71q0 -37 -10 -66q-12 -37 -33 -61q-23 -29 -49.5 -45.5t-67.5 -16.5q-47 0 -71 29q-25 27 -25 76zM147 778q0 33 12.5 63.5t33 57.5t51.5 45q27 16 65 17q45 0 70 -27q25 -28 24 -74 q0 -35 -10 -63q-14 -37 -31 -60q-20 -27 -51 -45q-27 -16 -67 -16q-47 0 -72 29q-25 27 -25 73z" />
<glyph unicode=";" horiz-adv-x="432" d="M-16 -289q76 78 114 154q39 74 39 127q0 18 -6 36.5t-18.5 31t-32.5 18.5q-25 6 -51 4l-9 55q8 10 46 31q20 12 69 33q10 4 72 26q35 12 53 13q10 -6 31 -21q10 -8 20 -24q9 -15 13 -37q4 -29 4 -52q0 -31 -13 -67q-10 -31 -34 -80q-10 -20 -52 -84q-23 -35 -63 -80 q-45 -49 -70 -69q-45 -37 -69 -54zM147 778q0 33 12.5 63.5t33.5 57.5q18 25 53 45q27 16 63 17q45 0 70 -27q25 -28 24 -74q0 -35 -10 -63q-14 -37 -31 -60q-20 -27 -51 -45q-27 -16 -65 -16q-49 0 -74 29q-25 27 -25 73z" />
<glyph unicode="&#x3c;" horiz-adv-x="854" d="M53 528q4 16 8 27l13 29q2 6 4 13t6 13q2 4 5 11.5t5 11.5l705 272l22 -26l-10 -25q-4 -8 -6 -15.5l-4 -15.5l-13 -30q-2 -4 -5 -12.5t-5 -12.5l-526 -203l475 -205l12 -38l-22 -18.5l-19 -16.5q-23 -18 -49 -35l-573 246z" />
<glyph unicode="=" horiz-adv-x="854" d="M47 377q4 10 10 22l6.5 13.5l6.5 13.5l12 27q2 6 6 11t6 11h662l20 -26q-4 -16 -8 -25q-2 -6 -6 -12t-8 -15q-4 -10 -13 -26l-10 -21h-663zM88 678q4 10 10 22q2 4 5 13.5t6 13.5q4 8 8 13t6 12q6 12 10 22h664l18 -24q-4 -16 -8 -24.5t-12 -29.5q-6 -14 -13 -26 q-4 -6 -7 -11.5t-5 -9.5h-661z" />
<glyph unicode="&#x3e;" horiz-adv-x="854" d="M29 279q2 4 5 12t5 12q6 23 10 33q2 8 4 15t6 16q6 18 11 22l528 203l-475 205l-14 39q16 12 22 18l19 18q2 2 6 5.5t9 6.5t7 5q4 4 14.5 9l14.5 7l573 -246l23 -30q-4 -8 -10.5 -25.5l-10.5 -28.5q-16 -39 -22 -51l-705 -272z" />
<glyph unicode="?" horiz-adv-x="833" d="M158 1083q0 68 28 125q35 68 84 113q51 45 133 78q77 31 172 31q66 0 115 -18.5t82 -51.5t49.5 -78t16.5 -96q0 -90 -27 -152q-29 -68 -68 -121q-39 -55 -88 -100q-55 -51 -94 -96q-43 -49 -76 -103q-35 -55 -43 -125l-12 -92q-8 -8 -39 -24q-18 -10 -45 -21l-22 23 l4 119q4 68 26 120q31 68 60 107q49 66 75 96q47 53 76 96q45 66 60 101q23 55 22 114q0 90 -41 148q-39 53 -119 53q-37 0 -67 -18q-27 -16 -47 -49q-18 -31 -25 -76q-6 -39 4 -90q-29 -14 -86 -31q-29 -8 -86 -16zM211 74q0 33 10 61q10 27 35 60q18 23 51 43q31 18 64 18 q47 0 71 -27q25 -29 25 -71q0 -37 -10 -66q-12 -37 -33 -61q-20 -27 -51 -45q-27 -16 -68 -17q-45 0 -69 29q-25 27 -25 76z" />
<glyph unicode="@" horiz-adv-x="1626" d="M78 465q16 115 55 221q37 100 105 205q53 82 143 176q78 82 176 141q95 58 203 92q104 33 221 33q89 0 172 -24q90 -27 150 -68q72 -49 120 -113q53 -70 84 -153q35 -96 43 -195q8 -102 -10 -231q-14 -96 -41 -164q-33 -82 -74 -143q-43 -65 -92 -117q-49 -53 -102 -90 t-101 -55q-55 -20 -88 -21q-16 0 -34 12q-20 14 -35 41q-16 35 -29 86q-8 39 -12 144q-18 -35 -60 -95q-39 -55 -69 -92q-33 -39 -78 -69q-39 -27 -78 -27q-35 0 -72 18q-39 18 -71 62q-31 39 -53.5 106.5t-22.5 159.5q0 61 18 154q16 78 50 145q34 68 86 129q47 57 123 109 q20 14 59 35q35 18 70 30q31 10 71 21q33 8 68 8q39 0 76 -18q35 -16 65 -39l55 30l54 27l24 -45q-25 -20 -28 -25q-10 -10 -21 -26q-8 -14 -14 -35q-6 -22 -13 -55q-18 -88 -28 -146l-21 -135q-4 -29 -14 -111q-4 -33 -4 -71q0 -61 4 -84q8 -41 12 -51q10 -23 21 -27 q16 -8 22 -8q25 0 60 30q35 33 67 82q34 52 62 123q29 74 41 158q25 166 -4 299q-27 125 -97 217q-66 86 -166 133q-96 45 -206 45q-92 0 -170 -26q-72 -25 -150 -76q-66 -43 -129 -113q-53 -57 -100 -143q-43 -76 -74 -164q-31 -84 -43 -178q-25 -188 10 -322 q37 -138 117 -233q78 -92 194 -144q113 -49 244 -49q77 0 154 19q63 14 141 47q66 27 121 59q47 27 84 58l20 -68q-41 -41 -96 -82q-58 -43 -135 -80q-68 -33 -166 -59q-89 -25 -190 -25q-168 0 -305.5 59.5t-227.5 168.5q-92 111 -131 264q-39 151 -10 348zM596 379 q0 -55 10 -111q8 -39 27 -82q14 -33 39 -53q18 -16 45 -16q25 0 49 22q23 20 57 66q37 47 62 90q35 57 59 108q8 61 14 97l17 98l8 46.5t8 43.5q6 43 13 68q-10 8 -64 43q-33 20 -74 20t-79.5 -22.5t-67.5 -57.5q-35 -41 -53 -82q-29 -61 -39 -94q-10 -35 -23 -96 q-8 -43 -8 -88z" />
<glyph unicode="A" horiz-adv-x="1161" d="M-41 0l8 53q61 12 101 25q37 12 51 43l479 1100l39 28q6 4 45 27q4 2 13.5 8t16.5 10t13 6q37 14 39 17l219 -1196q4 -18 8 -25q6 -9 19 -18q10 -8 30 -15q23 -8 52 -10l-7 -53h-409l6 53q72 6 100 21q31 16 25 47l-55 317h-381l-138 -317q-12 -31 17 -43q33 -12 104 -25 l-6 -53h-389zM416 541h315l-92 520z" />
<glyph unicode="B" horiz-adv-x="1038" d="M-2 0l6 53q61 14 100 31q33 14 37 31l148 1071q-29 -4 -78 -12q-31 -4 -72 -17v70q113 31 201 45q106 18 248 18q178 0 274 -65.5t96 -184.5q0 -47 -16 -100q-14 -43 -47 -90q-27 -37 -74 -74q-39 -31 -94 -53q57 -12 96 -39q47 -31 74 -68q31 -43 49.5 -94t18.5 -112 q0 -96 -41 -179q-41 -84 -107 -139q-63 -55 -155 -90q-86 -33 -191 -33h-49q-14 0 -60 4q-16 0 -32.5 2t-34.5 5q-12 0 -34.5 2t-35.5 2l-164 16h-63zM317 115q-4 -8 13 -21q37 -18 82 -24q47 -6 90 -7q63 0 114 25q47 23 89 70q35 41 55 100q18 55 18 117q0 41 -14 98 q-12 49 -43 86t-76 62q-43 23 -117 22q-33 0 -77 -4q-41 -4 -64 -8zM401 729h33q63 0 125 12q68 14 109 41q49 33 75 80q29 51 29 125q0 61 -20 100q-23 41 -54 66q-27 23 -69 35q-33 10 -74 10h-47h-41z" />
<glyph unicode="C" horiz-adv-x="1009" d="M72 459q0 94 18 192q16 90 59.5 188.5t100.5 176.5q61 84 145 151q70 55 162 90q86 33 184 33q94 0 174 -28q122 -44 122 -76q0 -7 -9 -23q-14 -27 -31 -47q-25 -33 -39 -49t-34 -37l-39 10q-18 25 -41 47q-25 27 -53 41q-27 14 -64 24.5t-76 10.5q-35 0 -84 -16 q-43 -14 -86 -47q-63 -47 -106 -123q-47 -80 -72 -156q-27 -78 -39 -162q-12 -80 -12 -143q0 -106 29 -186q29 -78 73 -127q49 -51 101 -72q57 -23 102 -22q16 0 61 8q34 6 74 24q49 23 88 47q51 31 107 76q4 -2 8 -10l8 -16l8 -17q2 -6 7 -10q-63 -63 -130 -113 q-57 -43 -118 -73q-59 -31 -107 -41q-43 -10 -98 -11q-82 0 -150 33q-74 35 -127 94q-55 61 -86 152q-30 88 -30 207z" />
<glyph unicode="D" horiz-adv-x="1146" d="M-2 0l6 53q61 14 100 31q35 14 39 31l148 1067l-150 -19v74q121 29 234 41q121 12 221 12q131 0 223 -39q102 -43 162 -108q66 -72 98.5 -170.5t32.5 -224.5q0 -88 -18 -177q-20 -102 -54 -174q-35 -76 -90 -155q-53 -74 -121 -127q-70 -53 -153 -84q-86 -31 -184 -31 h-494zM324 147q-2 -14 4 -24q8 -12 22 -19q18 -8 45 -10q20 -2 74 -2q76 0 135 27q57 27 111 76q49 47 88 108q43 68 65 135q29 82 39 144q12 74 13 145q0 109 -25 195t-74 147q-51 63 -122.5 96t-172.5 33h-28q-6 0 -16.5 -1t-14.5 -1z" />
<glyph unicode="E" horiz-adv-x="966" d="M-2 0l6 53q61 14 100 31q35 14 39 31l144 1030q2 12 -29 31q-23 14 -94 30l6 54h766l27 -27q0 -4 -5.5 -25.5t-9.5 -33.5q-2 -10 -8 -33t-8 -35l-11.5 -35.5t-9.5 -30.5q-10 -37 -18 -51h-53q4 36 3 64q0 42 -7 67q-12 39 -50 39h-325l-60 -424h373l23 -30l-23 -31 l-26 -33q-8 -10 -27 -29q-16 -16 -25 -22q-18 18 -30 26q-18 12 -43 19q-20 4 -60 8q-25 2 -88 2h-86l-63 -481q-4 -16 2 -26.5t24 -20.5q18 -9 56 -13q49 -4 96 -4h110q41 0 72 6q33 6 55 27q29 25 47 57q35 59 52 95l47 -21l-21 -84q-10 -41 -20 -76q-8 -33 -19 -63 l-16 -41h-813z" />
<glyph unicode="F" horiz-adv-x="911" d="M-2 0l6 53q61 14 100 31q35 14 39 31l144 1030q2 12 -29 31q-23 14 -94 30l6 54h774l27 -27q0 -4 -5 -25.5t-10 -33.5l-18 -68l-18 -66q-10 -37 -19 -51h-51q2 31 2 56q0 49 -8 75q-12 39 -49 39h-334l-60 -424h328l25 -30q-6 -8 -12.5 -15.5t-12.5 -15.5l-8 -11.5 l-7 -9.5l-9 -12q-8 -10 -27 -29q-4 -4 -13.5 -12t-11.5 -10q-14 14 -32.5 26.5t-40.5 18.5q-16 4 -50 8q-18 2 -61 2h-80l-72 -530q-2 -6 6.5 -13.5t24.5 -15.5q29 -12 121 -33l-8 -53h-463z" />
<glyph unicode="G" horiz-adv-x="1087" d="M72 477q0 100 20 191q20 88 64 182q45 94 94 162q51 70 125 129q90 72 188 108q106 41 234 41q18 0 67 -8q39 -6 78 -18q27 -8 72 -33q41 -23 61 -43q6 -6 -6 -27q-14 -27 -31 -47q-12 -16 -41 -49q-16 -18 -36 -35l-37 8q-45 66 -110.5 98.5t-156.5 32.5q-35 0 -92 -26 q-59 -29 -106 -70q-46 -40 -86 -104q-35 -57 -66 -142q-29 -78 -43 -155q-14 -74 -14 -152q0 -108 31 -184q33 -82 79 -129q51 -51 109 -74q61 -25 119 -24q51 0 96 12q41 10 82 41l41 299q0 6 -4 18q-4 10 -27 21q-31 12 -65 20q-57 12 -119 23l6 53h485l-6 -53 q-49 -14 -78 -39q-27 -23 -28 -43l-10 -72q-4 -23 -6.5 -44t-4.5 -44q-2 -18 -6 -40.5t-6 -43.5q-2 -14 -4 -33.5t-2 -23.5q-86 -70 -135 -99q-55 -33 -111 -57q-53 -23 -92 -29q-43 -6 -84 -6q-84 0 -166 35q-76 33 -139 98q-61 65 -99 160q-34 90 -34 215z" />
<glyph unicode="H" horiz-adv-x="1257" d="M-2 0l6 53q61 14 100 31q35 14 39 31l144 1030q2 12 -29 31q-23 14 -94 30l6 54h436l-8 -54q-70 -16 -98 -30q-39 -18 -41 -31l-60 -434h533l59 434q2 12 -28 31q-23 14 -95 30l6 54h439l-8 -54q-74 -18 -101 -30q-37 -18 -39 -31l-141 -1030q-4 -12 27 -31 q23 -12 96 -31l-8 -53h-437l9 53q61 14 100 31q35 14 39 31l68 493h-533l-66 -493q-4 -12 27 -31q23 -14 94 -31l-8 -53h-434z" />
<glyph unicode="I" horiz-adv-x="591" d="M18 0l9 53q57 14 98 31q39 16 41 31l139 1030q2 12 -29 31q-25 14 -92 30l9 54h434l-9 -54q-74 -18 -100 -30q-37 -18 -39 -31l-141 -1030q-4 -12 27 -31q23 -12 96 -31l-8 -53h-435z" />
<glyph unicode="J" horiz-adv-x="595" d="M-289 -301q0 12 17 31l39 39q14 14 47 34q27 16 34 17q6 0 23 -13l29 -22q16 -12 39 -23q25 -10 53 -10q25 0 51 15q31 16 57 59q27 41 52 115q27 78 41 192l139 1012q0 6 -6 12q-8 8 -25 17q-10 6 -51 16q-18 6 -86 16l6 54h481l-8 -54q-74 -18 -100 -30 q-37 -18 -39 -31l-129 -940q-15 -117 -43 -197q-25 -72 -64 -135q-34 -55 -73 -92q-43 -39 -82 -70q-29 -23 -60 -39q-34 -18 -67 -30q-47 -16 -64 -21q-31 -6 -51 -6q-37 0 -61 8q-23 8 -49.5 22.5t-36.5 28.5q-13 16 -13 25z" />
<glyph unicode="K" horiz-adv-x="1134" d="M-2 0l6 53q61 14 100 31q35 14 39 31l144 1030q2 12 -29 31q-23 14 -94 30l6 54h436l-8 -54q-70 -16 -98 -30q-39 -18 -41 -31l-68 -494l443 467q29 31 34 43q8 14 2 25q-8 12 -26.5 14l-57.5 6l9 54h393l-6 -54q-12 -2 -32 -5t-22 -3q-18 -2 -41 -10q-16 -6 -34 -17 q-10 -6 -31 -26l-479 -473l352 -500q16 -25 31 -31q20 -10 41 -10q29 0 55 8q53 16 72 25l20 -47q-49 -37 -75.5 -53.5t-75.5 -40.5q-35 -18 -66 -27q-35 -10 -51 -10q-31 0 -51 12q-23 14 -43 47l-363 588l-70 -518q-4 -12 27 -31q23 -14 94 -31l-8 -53h-434z" />
<glyph unicode="L" d="M-2 0l6 53q61 14 100 31q35 14 39 31l144 1030q2 12 -29 31q-23 14 -94 30l6 54h436l-8 -54q-70 -16 -98 -30q-39 -18 -41 -31l-133 -977q-2 -16 4 -30.5t24 -22.5q14 -6 52 -11q45 -4 81 -4h119q41 0 72 6q33 6 55 27q29 25 47 57q35 59 51 95l48 -21l-21 -84 q-4 -14 -12 -39.5t-10 -36.5q-8 -33 -18.5 -63.5t-14.5 -40.5h-805z" />
<glyph unicode="M" horiz-adv-x="1542" d="M4 0l8 53q61 14 101 31q33 14 37 31l153 1054q-27 18 -63 29q-31 8 -60 8l8 54h283q12 0 16.5 -2.5t10.5 -12.5q2 -2 3 -6t3 -10t4 -10q6 -15 12 -43l242 -875l459 875l24 43q12 20 16.5 26t16.5 12q4 2 14 3h279l-6 -54q-29 0 -59.5 -8t-69.5 -24l-123 -1059 q-3 -12 30 -31q25 -12 99 -31l-8 -53h-435l9 53q59 14 102 31q40 15 43 31l104 909l-532 -1024h-57l-273 1016l-131 -901q-2 -12 29 -31q23 -14 94 -31l-6 -53h-377z" />
<glyph unicode="N" horiz-adv-x="1247" d="M0 0l6 53q66 8 103 29q31 16 34 33l142 1026q-23 29 -56 45q-27 14 -71 20l8 54h203h32q4 0 21 -11q4 -4 16 -22q4 -6 12.5 -21.5t12.5 -23.5l473 -899l119 862q0 6 -6.5 14t-18.5 17q-20 12 -37 18q-12 4 -59 12l6 54h373l-6 -54q-70 -10 -101 -26q-33 -16 -35 -35 l-163 -1176q-55 6 -90 25q-39 20 -60 63l-479 920l-119 -862q-3 -12 25 -31q27 -18 96 -31l-8 -53h-373z" />
<glyph unicode="O" horiz-adv-x="1134" d="M86 485q0 78 10 138q10 63 35 141q18 59 53 133q31 63 72 121q57 74 90 106q51 51 106.5 86t123 57.5t139.5 22.5q100 0 176 -41q72 -39 123 -112q47 -68 71.5 -164t24.5 -199q0 -57 -14.5 -143t-34.5 -146q-20 -61 -60 -137q-29 -59 -79 -123q-41 -51 -93 -100 q-55 -51 -104 -82q-47 -29 -117 -53q-59 -20 -127 -21q-96 0 -172 41q-78 41 -125 111q-49 71 -73 166q-25 94 -25 198zM266 532q0 -92 19 -172q16 -76 53 -137q33 -55 84 -88q53 -33 108 -33q72 0 132 31q61 33 102 82q49 59 76 119q29 66 51 139q18 63 28.5 145t10.5 138 q0 94 -17 159q-18 76 -51 129.5t-84 85.5q-53 33 -112 33q-68 0 -129 -28q-51 -25 -100.5 -80.5t-76.5 -112.5q-33 -70 -53 -135q-22 -71 -31 -141q-10 -79 -10 -134z" />
<glyph unicode="P" horiz-adv-x="997" d="M-2 0l6 53q61 14 100 31q35 14 39 31l148 1069l-74 -13q-25 -4 -78 -16v70q78 27 197 47q106 18 235 18q98 0 185 -22q78 -20 139 -66q55 -41 88 -108q31 -66 31 -152q0 -84 -35 -160q-35 -74 -94 -131q-57 -53 -137 -88q-78 -33 -170 -33q-41 0 -76 9q-40 9 -68 24 l-12 84q18 -8 65 -22q35 -10 66 -11q59 0 114.5 22.5t90.5 57.5q33 33 57 92q20 49 21 119q0 86 -27 139q-29 57 -70 91q-43 33 -102 49q-55 14 -123 14h-25h-20l-150 -1083q-4 -6 5 -15q6 -6 22 -14q10 -6 47 -16q12 -4 76 -17l-6 -53h-465z" />
<glyph unicode="Q" horiz-adv-x="1155" d="M86 485q0 78 10 138q10 63 35 141q18 59 53 133q31 63 72 121q57 74 90 106q51 51 106.5 86t123 57.5t139.5 22.5q100 0 176 -41q72 -39 123 -112q47 -68 71.5 -164t24.5 -199q0 -57 -14.5 -143t-34.5 -146q-20 -61 -60 -137q-29 -59 -79 -123q-59 -74 -113 -119 q-74 -63 -131 -90q29 -14 82 -51q68 -51 76 -55q31 -20 75 -43q33 -16 72 -17q16 0 25 3q14 4 28 12q29 16 39 24l19.5 13.5l31.5 21.5l27 -45q-23 -37 -57 -78q-25 -31 -56 -57q-35 -31 -49 -39q-22 -12 -37 -12q-58 0 -110 31q-59 35 -107 73q-37 29 -102 92 q-55 51 -105 82q-16 -2 -49 -2q-96 0 -172 41q-78 41 -125 111q-49 71 -73 166q-25 94 -25 198zM266 532q0 -92 19 -172q16 -76 53 -137q33 -55 84 -88q53 -33 108 -33q72 0 132 31q61 33 102 82q49 59 76 119q29 66 51 139q18 63 28.5 145t10.5 138q0 94 -17 159 q-18 76 -51 129.5t-84 85.5q-53 33 -112 33q-68 0 -129 -28q-51 -25 -100.5 -80.5t-76.5 -112.5q-33 -70 -53 -135q-22 -71 -31 -141q-10 -79 -10 -134z" />
<glyph unicode="R" horiz-adv-x="1099" d="M-2 0l6 53q61 14 100 31q35 14 39 31l146 1069q-27 -4 -76 -13q-55 -8 -76 -14l2 70l94 24q41 10 103 21q16 2 113 12q61 6 129 6q94 0 167 -20q77 -22 129 -62q51 -39 80 -100t29 -137q0 -43 -18 -99q-16 -49 -60 -108q-41 -55 -102 -100q-59 -43 -152 -66l230 -403 q18 -31 32 -45q16 -18 39 -21q23 -4 54 6q61 18 77 25l23 -47l-80 -50l-78 -40q-33 -16 -63.5 -26.5t-40.5 -10.5q-16 0 -33 6q-25 10 -33 18q-16 16 -30.5 39t-34.5 68l-211 469q-18 2 -60 6q-27 2 -57 10l-66 -487q-2 -12 29 -31q23 -14 94 -31l-8 -53h-436zM397 686 q51 -14 109 -14q63 0 112 16q57 18 99 51q37 29 65 86q27 53 27 117q0 70 -27 123q-23 45 -67 80q-35 27 -90 41q-49 12 -95 12h-32h-31z" />
<glyph unicode="S" horiz-adv-x="923" d="M41 119q0 14 12 39q12 23 33 51q25 33 39 45q25 20 35 20q4 0 18 -14l11.5 -12t15.5 -19l35 -41q23 -27 45 -43t57 -30.5t74 -14.5q49 0 104 21q51 18 86 51t58 80q20 43 20 100q0 41 -12 78q-12 35 -43 70q-33 35 -82 67q-51 33 -127 70q-63 31 -109 65q-41 33 -67.5 72 t-34.5 76q-10 45 -10 78q0 61 32 131q31 66 88.5 117t139.5 81q88 33 182 33q80 0 147 -28q66 -29 113 -64q3 -3 3 -8q0 -9 -7 -21q-25 -43 -29 -49q-18 -29 -39 -51q-25 -27 -30 -31l-39 6q-31 57 -84 99q-51 39 -111 39q-51 0 -94 -17q-37 -14 -68 -45q-27 -27 -41 -59 q-14 -31 -14 -66q0 -23 6 -47q4 -20 31 -49q22 -25 61 -55q35 -27 109 -64q66 -33 133 -78q55 -37 90 -77q37 -43 51 -86q16 -49 17 -101q0 -96 -39 -180q-39 -82 -109 -149q-72 -68 -157 -103q-92 -37 -195 -37q-43 0 -96 13q-51 12 -100 34q-53 25 -78 47q-31 28 -31 56z " />
<glyph unicode="T" horiz-adv-x="1079" d="M106 995l6.5 31l6.5 31q4 25 16 73q4 14 11.5 38t9.5 32q10 37 18 60h944l25 -27q0 -4 -10 -57q-4 -23 -17 -68q-2 -10 -8 -32.5t-8 -35.5q-9 -34 -19 -61h-51q-4 53 -6 84q-4 39 -8 55q-6 22 -19 31q-14 10 -32 10h-246l-141 -1034q0 -8 4 -14q6 -8 22 -19 q23 -14 43 -20q23 -8 70 -19l-8 -53h-471l8 53q37 8 71 19q14 4 48 20q25 12 28 17q8 8 8 16l146 1034h-260q-10 0 -27 -8q-12 -6 -27 -27q-16 -25 -32 -55l-47 -94z" />
<glyph unicode="U" horiz-adv-x="1239" d="M166 1206l6 54h434l-8 -54q-70 -16 -98 -30q-37 -18 -39 -31l-88 -635q-6 -55 -6 -57q0 -10 -1 -28.5t-1 -27.5q0 -66 16 -125q16 -57 49 -96q31 -37 82 -59q47 -20 113 -21q65 0 116 31q57 33 95 82q43 57 65 117q27 72 35 143l92 676q3 12 -24 31q-20 14 -93 30l7 54 h385l-9 -54q-72 -16 -96 -30q-33 -18 -35 -31l-90 -633q-18 -132 -61 -233q-41 -98 -111 -170q-63 -68 -151 -105q-82 -35 -185 -35q-82 0 -151 25q-71 25 -123 74q-53 49 -80 118q-29 74 -29 162q0 59 8 115l99 682q2 12 -29 31q-22 14 -94 30z" />
<glyph unicode="V" horiz-adv-x="1224" d="M133 1206l8 54h422l-6 -54q-80 -6 -100 -18q-29 -16 -23 -45l189 -918l421 916q16 29 -14.5 43t-101.5 22l8 54h385l-8 -54q-61 -12 -100 -24.5t-52 -40.5l-497 -1073q-10 -25 -31 -39q-29 -20 -45 -29q-33 -16 -49 -20l-41 -11l-248 1172q-6 29 -31 43q-18 12 -86 22z " />
<glyph unicode="W" horiz-adv-x="1576" d="M125 1206l6 54h412l-6 -54q-41 -6 -72 -12q-23 -4 -41 -16q-15 -9 -18 -19q-2 -6 -3 -22l58 -838l422 961h67l185 -961l276 846q4 12 -4 20q-10 10 -27 17q-18 6 -43 12q-16 4 -57 12l8 54h393l-6 -54q-80 -18 -104 -26q-35 -10 -45 -35l-361 -1086q-12 -29 -24 -39 q-20 -16 -39 -24q-29 -12 -43 -16q-6 -2 -18.5 -5.5t-16.5 -5.5l-172 955l-383 -865q-10 -23 -29 -39q-20 -16 -43 -26q-29 -12 -43 -17q-10 -2 -37 -8l-75 1168q-4 25 -29 41q-27 16 -88 28z" />
<glyph unicode="X" horiz-adv-x="1183" d="M-25 0l7 53q63 6 106 25q47 20 74 59l358 510l-233 475q-12 22 -25 37q-12 14 -24.5 22.5t-36.5 14.5q-4 2 -49 10l6 54h440l-6 -54q-80 -10 -105 -22q-16 -9 -15 -28q0 -15 9 -34l170 -344l244 344q18 27 18 39q0 14 -12 23q-10 8 -41 14q-23 4 -65 8l8 54h414l-9 -54 q-39 -4 -59 -8q-23 -4 -49 -16q-25 -10 -39 -23q-16 -12 -33 -37l-321 -452l264 -533q6 -14 22 -35q12 -14 29 -24q14 -8 35 -15q27 -8 47 -10l-8 -53h-439l9 53q35 2 65 10q27 6 39 16.5t12 22.5q0 10 -10 35l-194 395l-283 -395q-18 -26 -18 -42q0 -12 10 -19 q20 -16 108 -23l-8 -53h-412z" />
<glyph unicode="Y" horiz-adv-x="1150" d="M109 1237q27 6 61 12l68 13q47 8 63 10q41 4 47 4q16 0 33 -12q25 -18 31 -31q18 -31 43 -78l45 -92q2 -6 19.5 -44t25.5 -58q8 -23 19 -48.5t22 -54.5q6 -16 32 -96q14 -43 25 -84l299 463q18 27 -4 43q-18 12 -90 22l6 54h369l-6 -54q-53 -10 -99 -26q-31 -10 -51 -39 l-387 -606l-55 -410q0 -8 4 -14q6 -8 22 -19q23 -14 43 -20q23 -8 70 -19l-8 -53h-471l8 53q35 8 72 19q20 6 49 20q20 10 26 17q10 10 11 16l57 420l-49 157q-14 47 -64 166q-37 92 -69 154q-57 109 -66 123q-2 6 -20 22q-8 8 -27 13q-31 6 -39 6q-35 0 -59 -2z" />
<glyph unicode="Z" horiz-adv-x="1034" d="M27 47l782 1108h-403q-12 0 -35 -12q-16 -10 -41 -41q-25 -33 -43.5 -65.5t-38.5 -96.5l-62 14l76 330q16 -6 45 -14q8 -2 22.5 -4t16.5 -2q25 -4 41 -4h47h590l18 -48l-774 -1101h463q23 0 39 10q20 12 37 39q16 25 39 69q25 49 47 109l57 -16l-5 -35t-7 -43l-16 -88 l-15 -86l-10 -70h-850z" />
<glyph unicode="[" horiz-adv-x="630" d="M18 -336l273 1935h411l29 -28q-4 -16 -8 -27q-2 -4 -5 -13t-5 -13l-13 -25q-2 -4 -6 -9t-4 -7h-262l-235 -1688h256l30 -33q-6 -18 -8 -22t-5 -12.5t-5 -12.5t-5 -12t-5 -12q-4 -8 -13 -21h-420z" />
<glyph unicode="\" horiz-adv-x="831" d="M143 1575l39 24l31 -10l17.5 -6l17.5 -6q25 -8 35 -14q20 -12 28 -19l385 -1853l-37 -27q-10 4 -28 10q-31 10 -39 15q-6 4 -18.5 8t-18.5 8q-16 8 -23 14z" />
<glyph unicode="]" horiz-adv-x="614" d="M-86 -305q4 12 10 26l4 12.5t6 12.5q2 4 5.5 12.5t5.5 12.5t6 10t4 8h262l238 1688h-254l-31 28q6 22 18 49l23 45h418l-271 -1935h-413z" />
<glyph unicode="^" horiz-adv-x="937" d="M94 592l422 870q12 12 31 25l37 24q25 16 37 23l32 16l201 -915q-37 -29 -53 -39q-27 -16 -58 -31l-30 27l-160 723l-330 -680q-2 0 -11 -8.5t-15 -12.5q-4 -4 -14.5 -10t-16.5 -10q-25 -14 -29 -16q-14 -8 -24 -13z" />
<glyph unicode="_" horiz-adv-x="901" d="M-45 -227q6 22 18 49t27 47h731l21 -29q-2 -12 -9 -22q-6 -12 -12 -27q-2 -4 -6 -13t-6 -14q-4 -6 -7 -11t-5 -9h-734z" />
<glyph unicode="`" horiz-adv-x="604" d="M238 1403l34 41q4 0 12.5 1t20.5 3q14 2 47 6t47.5 6t34.5 2l135 -411q-22 -12 -37 -19q-12 -4 -32 -8z" />
<glyph unicode="a" d="M47 305q0 68 21 154q18 78 55 145.5t92 128.5q51 57 125 109q20 14 59 34.5t68 30.5q31 10 72 21q33 8 71 8q20 0 41 -6q25 -6 39 -15l37 -18l35 -20q6 4 53 30l57 29l25 -45q-25 -20 -29 -25q-12 -10 -20 -26q-8 -14 -14 -35q-6 -22 -13 -55q-18 -88 -28 -146 q-2 -16 -7.5 -45l-9.5 -50.5t-6 -39.5q-4 -29 -14 -111q-4 -33 -4 -71q0 -102 14 -144q16 -45 36.5 -45t45.5 6q37 8 65 23l15 -45q-102 -70 -148 -92q-61 -31 -92 -31q-18 0 -37 12q-16 12 -33 43q-18 35 -26 88q-10 61 -10 144q-27 -45 -66 -96q-37 -49 -80 -93 q-45 -45 -86 -71.5t-84 -26.5q-35 0 -71 18q-39 18 -72 62q-31 39 -53.5 106.5t-22.5 159.5zM215 379q0 -55 10 -111q10 -51 27 -82q20 -39 41 -53q23 -16 49 -16q20 0 51 24q33 27 66 68q51 66 71 94q37 52 68 111q0 6 4 39.5t8 52.5l17 92q8 45 14 84q4 20 7 36.5t5 29.5 q-20 16 -32 24q-31 20 -35 23q-35 16 -39 18q-23 6 -41 6q-43 0 -84 -22q-37 -20 -72 -58q-33 -35 -57 -82q-27 -49 -43.5 -94t-26.5 -96q-8 -43 -8 -88z" />
<glyph unicode="b" horiz-adv-x="976" d="M100 1415q35 18 93 39l90 33q39 14 77 24q31 8 48 9q27 0 39 -18.5t12 -63.5q0 -29 -6 -78q-2 -10 -5.5 -49t-7.5 -62q-6 -41 -18 -135q-10 -72 -23 -147l-24 -156q-4 -29 -11.5 -70t-13.5 -82q53 82 105 134q55 55 98 84q49 33 88 45q47 14 72 14q43 0 78 -21 q37 -20 63 -63q29 -45 43 -102.5t14 -139.5q-3 -108 -37 -215q-33 -106 -106 -207q-29 -39 -76 -86q-43 -43 -92 -73q-57 -35 -106 -52q-59 -18 -121 -18q-16 0 -47 10q-18 6 -56 31q-28 18 -55 43q-23 20 -47 55q-27 37 -35 62q-12 33 -12 65q0 25 6 80q2 20 8 66.5l8 62.5 l23 158q14 102 27 176q14 88 26 174q4 23 12.5 80l12.5 84q2 16 6 44t6 49.5t4 37.5q6 57 6 88q0 25 -6 37q-10 18 -12 20q-8 6 -17 9q-6 2 -18 2q-4 0 -25 -4q-14 -2 -32 -11l-41 -12zM303 270q0 -27 16 -55q16 -27 41 -53q25 -25 54 -39q33 -16 61.5 -16.5t59.5 10.5 q23 8 51 28q23 16 43 41q25 29 35 45q20 33 36 72q10 25 23 78q6 25 10 78q4 49 4 71q0 61 -12 111q-14 61 -27 82q-18 33 -40.5 49t-47.5 16q-20 0 -49 -20q-35 -25 -72 -61q-31 -31 -81 -97q-41 -53 -82 -125q-14 -117 -17 -127q-6 -55 -6 -88z" />
<glyph unicode="c" horiz-adv-x="819" d="M59 322q0 72 15 137q16 78 44.5 139t82.5 129q47 59 125 111q10 6 61 34q16 8 74 33q27 12 76 23q35 8 73 8q43 0 80 -16q34 -15 62 -37q6 -4 24.5 -18.5l26.5 -20.5q25 -20 41 -27l-20.5 -15t-26.5 -22l-49 -37q-10 -8 -48 -28q-18 -10 -34 -10q-14 0 -29 18l-39 39 q-20 20 -45 38.5t-57 18.5q-43 0 -78 -20q-39 -23 -66 -56q-33 -39 -51 -79q-20 -43 -37 -97q-16 -55 -22 -100q-6 -52 -6 -98q0 -65 12 -117q12 -51 36.5 -88t57.5 -55q37 -20 72 -21q14 0 51 8q29 6 65 25q20 10 82 47q25 14 101 74q4 -4 8 -12.5t10 -16.5q2 -4 9.5 -11 t9.5 -12q-77 -71 -142 -116q-63 -45 -114 -70q-55 -27 -97 -35q-47 -10 -82 -10q-41 0 -79 16q-47 20 -84 60q-37 41 -66 112q-27 69 -27 175z" />
<glyph unicode="d" horiz-adv-x="983" d="M47 315q0 80 19 154q20 80 53 141q37 68 90 127q52 58 123 105q33 23 61 35q8 4 21.5 10l25 11l21.5 9q23 8 71 21q33 8 68 8q22 0 43 -12q35 -20 45 -29l21 133q12 94 16 121q2 12 6 48l6 54q4 61 4 74q0 29 -2 37q-4 14 -10 20q-4 6 -14 9q-6 2 -19 2q-2 0 -26 -4 q-4 0 -33 -11q-20 -6 -45 -12l-12 49q43 20 90 39l86 35q12 4 71 22q27 8 45 9q29 0 46 -19q16 -20 16 -63q0 -18 -8 -101q-6 -63 -19 -139l-26 -162q-4 -31 -11.5 -79t-17.5 -97q-20 -106 -31 -172l-26 -160q-12 -72 -19 -133q-6 -58 -6 -92q0 -104 12.5 -153.5t34.5 -49.5 q29 0 53 6q37 8 62 21l12 -47q-86 -59 -145 -88q-66 -33 -99 -33q-18 0 -34.5 14.5t-32.5 49.5q-12 27 -23 90q-8 55 -12 141q-49 -82 -76 -117q-43 -55 -82 -92q-51 -47 -84 -63q-45 -23 -81.5 -23t-75.5 21q-41 23 -74 63q-34 43 -55 111q-23 71 -23 161zM215 379 q0 -61 12 -111q12 -47 30.5 -81.5t43.5 -53.5q23 -16 53 -16q25 0 52 20q39 31 63 60q29 35 68 92q37 55 73 123q4 20 11.5 67l11.5 74q6 35 9 56.5l7 48t10 61.5l-34 35q-18 16 -39 32q-22 15 -43 25q-18 8 -45 8q-43 0 -82 -22q-43 -25 -70 -58q-39 -45 -57 -82 q-29 -51 -41 -94q-16 -51 -25 -96q-8 -43 -8 -88z" />
<glyph unicode="e" horiz-adv-x="823" d="M57 303q0 70 21 152q20 84 53 143q39 72 88 129t117 113q16 14 51 34q33 18 64 31q45 16 69 23q33 8 70 8q45 0 82 -16q39 -18 57 -39q23 -25 35 -58q10 -25 10 -63q0 -27 -6 -58q-6 -35 -27 -65q-20 -35 -57 -70q-37 -37 -96 -75q-41 -27 -148 -80q-84 -41 -207 -86 q6 -49 23 -97q14 -41 39 -75q16 -25 47 -48q25 -18 53 -18q20 0 51 6q29 6 70 25q57 27 90 47q61 39 111 78l10 -11q2 -2 10 -14q4 -6 8 -14l7 -12q-94 -80 -146 -117q-72 -51 -114 -72q-57 -27 -95 -35q-47 -10 -82 -10q-37 0 -79.5 18.5t-83.5 59.5q-35 35 -66 106 q-29 68 -29 160zM231 414q127 51 191 88q70 39 106 76q39 39 47 67q10 37 11 68q0 20 -8 49q-6 20 -19 33q-16 16 -27 20q-15 6 -30 6q-18 0 -49 -12t-60 -41q-29 -31 -57 -70q-35 -49 -51 -86q-20 -43 -37 -96q-13 -41 -17 -102z" />
<glyph unicode="f" horiz-adv-x="591" d="M-100 -416q49 27 90 88q43 61 71 135q27 68 52 164q18 72 28 168l76 666h-145l-19 35l111 65h65q9 80 25 154q18 86 41 139q31 74 70 125q47 63 104 104q47 35 106 66q51 27 113 27q43 0 86 -16.5t72 -37.5q10 -8 55 -41q27 -18 39 -24l-47 -34.5l-53 -39.5 q-14 -10 -49 -31q-25 -14 -35 -14q-14 0 -29 18l-31 39q-14 18 -37 39q-22 18 -49 19q-33 0 -59 -21q-29 -23 -49 -57q-18 -31 -35 -82q-16 -47 -25 -94l-6 -30.5l-7 -37t-5 -31.5q-8 -68 -10 -92l-6 -47h254l20 -31q-6 -10 -27 -30l-18 -17.5t-19 -17.5q-14 -14 -38 -31 l-29 -18q-4 10 -16 22q-8 8 -27 15q-4 2 -43 6q-16 2 -62 2h-8l-69 -612q-12 -113 -50 -213q-39 -106 -88 -190.5t-116 -158.5q-61 -66 -142 -116z" />
<glyph unicode="g" horiz-adv-x="927" d="M-10 -383q0 18 14 41q10 16 35 45q18 23 39 39q16 14 24 14q10 0 27 -20q15 -18 43 -43q29 -25 70 -43q43 -18 110 -19q88 0 144 78q59 82 86 244q6 35 14 96q4 31 8 88.5t4 83.5q0 25 4 82q-31 -55 -77 -123q-51 -74 -86 -110q-43 -45 -95 -80q-47 -31 -90 -31 q-31 0 -71 18q-37 16 -72 62q-35 43 -55 106q-23 68 -23 160q0 68 20.5 154t53.5 145q37 68 92 129q47 53 131 109q20 14 59 35q34 18 68 30q23 8 72 21q33 8 71 8q20 0 41 -6q8 -2 41 -17q23 -10 39 -20l17.5 -12.5l17.5 -12.5q37 29 55 39l53 29l27 -45q-35 -29 -53 -70 q-20 -43 -29 -112q-12 -104 -20 -215l-11 -181l-12 -159q-8 -102 -18 -154q-18 -102 -68 -195q-47 -88 -117 -157q-72 -72 -145 -109q-78 -39 -158 -39q-45 0 -94 13q-55 14 -90 28q-43 18 -69.5 39t-26.5 37zM213 379q0 -55 10 -111q8 -45 29 -82q18 -35 43 -53 q23 -16 51 -16q20 0 49 26q37 33 70 74q45 55 80 115q49 82 78 145q4 66 8 92q10 82 14 102.5t8 33.5q2 4 5.5 14l5.5 16q-8 6 -16.5 14.5t-16.5 14.5q-16 14 -39 27q-20 12 -41 20q-18 8 -45 8q-43 0 -84 -22q-37 -20 -72 -58q-33 -35 -57 -82q-27 -49 -43.5 -94t-26.5 -96 q-10 -55 -10 -88z" />
<glyph unicode="h" horiz-adv-x="1032" d="M82 -8q8 53 22 133q0 4 27 174l16.5 96t16.5 101l33 206l15 110.5t13 92.5q16 100 25 180q2 27 9 76t9 70q6 61 6 94q0 20 -4 36.5t-8 20.5q-2 2 -14 9q-4 2 -15 2q-4 0 -28 -4q-8 -2 -18.5 -5.5t-18.5 -5.5l-47 -12l-15 49l89 37l88 35q47 16 75 24q31 8 48 9 q29 0 45 -19q16 -20 16 -63q0 -23 -6 -78q-10 -102 -15 -125l-22 -152q-6 -35 -11 -73.5t-12 -79.5l-11 -74l-9 -63l-16 -101q59 68 114 115q59 51 109 76q55 29 102 41q49 12 94 12q37 0 56 -8q25 -10 37 -29q16 -25 22 -53q6 -35 6 -80q0 -37 -6 -86q-10 -86 -14 -109 q-14 -88 -21 -120q-6 -31 -20 -117q-14 -82 -17 -103q-6 -46 -6 -73q0 -37 10 -47q12 -12 25 -13q33 0 57 8q23 8 64 25l18 -45q-61 -37 -168 -90q-74 -37 -118 -37q-29 0 -52 31q-23 33 -22 86q0 33 4 63q0 4 16 105l21 127l20 129q2 8 8.5 49t8.5 59q6 49 6 72q0 27 -4 59 q-2 18 -10 39q-6 14 -18.5 20.5t-33.5 6.5q-12 0 -43 -12q-29 -10 -67 -41q-43 -33 -78 -70q-53 -57 -78 -100q-27 -47 -45 -119q-14 -55 -33 -162q-4 -20 -7 -53t-5 -43l-8 -72q-2 -20 -2 -53v-41l-37 -19q-6 -2 -20.5 -9t-28.5 -13q-8 -4 -17.5 -7t-15.5 -6t-16.5 -7.5 t-22.5 -11.5l-12 -7z" />
<glyph unicode="i" horiz-adv-x="524" d="M66 829q18 8 39.5 18.5t46.5 20.5l86 33l73 25q35 10 47 10q29 0 41.5 -18.5t12.5 -65.5q0 -10 -9 -84q-6 -55 -18 -123l-25 -139l-24 -141q-12 -68 -19 -123q-8 -74 -8 -84q0 -25 8 -45q6 -14 23 -15q33 0 57 8q59 20 70 25l16 -45q-125 -74 -166 -92q-74 -35 -118 -35 q-34 0 -56 31q-23 33 -22 86q0 10 8 84q2 20 9 61t9 58q6 43 23 137q18 104 23 135q2 20 9 59t9 56q8 66 8 73q0 20 -4 37q-4 18 -6 21q-4 6 -14 8q-6 2 -17 2q-4 0 -24.5 -4t-32.5 -8t-41 -13zM291 1176q0 31 8 55q8 27 29 53q14 20 45 39q23 14 57 14q41 0 59 -20 q18 -22 19 -55q0 -25 -10 -56q-10 -33 -27 -53q-12 -16 -45 -37q-23 -14 -57 -14q-39 0 -60 20q-18 19 -18 54z" />
<glyph unicode="j" horiz-adv-x="522" d="M-387 -418q0 14 14 37q14 25 35 47q25 29 39 39q23 16 31 16q4 0 22 -14q2 -2 14.5 -12t20.5 -17q33 -23 51 -30q37 -14 72 -15q39 0 74 25q33 25 57 70q27 51 45 118q23 84 35 164q18 109 22 142q6 39 15 124l6 50l6 51q4 45 6 74q8 63 8 67l9 86q2 16 5 44t3 38 q2 25 2 53.5t-2 36.5q-4 14 -10 21q-4 4 -13 8q-4 2 -16 2q-4 0 -24.5 -4t-33 -8l-40.5 -13l-17 47l41 18.5l47 20.5l47 17.5t41 15.5q37 14 72 24.5t45 10.5q28 0 43 -12q16 -12 16 -54q0 -20 -2 -39q0 -6 -3 -27.5l-5 -35.5q-4 -37 -8 -80l-8 -84q-2 -27 -8 -74 q-4 -39 -7 -57q-8 -61 -18 -172q-8 -82 -29 -227q-18 -111 -49 -191t-67 -135q-41 -63 -78 -96q-55 -51 -82 -72q-18 -14 -60 -35q-39 -18 -63 -26q-39 -12 -61 -15q-37 -4 -50 -4q-35 0 -65 8q-33 8 -64 23q-29 12 -45 26.5t-16 24.5zM264 1176q0 25 10 55q8 27 29 53 q16 23 43 39q23 14 60 14q39 0 59 -20q18 -18 18 -55q0 -25 -10 -56q-10 -33 -27 -53q-14 -20 -45 -37q-27 -14 -59 -14q-39 0 -57 20q-21 25 -21 54z" />
<glyph unicode="k" horiz-adv-x="933" d="M82 -8q4 37 12 94l25 152q6 39 15 86t18 104l32 211l33 215l14.5 94.5t14.5 102.5q18 135 20 163q8 94 8 109q0 18 -4 39q-4 14 -8 20q-8 8 -14 9q-2 0 -10.5 1t-12.5 1l-24 -4q-8 -2 -16.5 -5.5t-18.5 -5.5q-20 -6 -45 -12l-17 49l91 37l88 35q47 16 75 24 q31 8 47.5 8.5t24.5 -1.5q10 -2 19 -15q10 -14 12 -30q4 -29 4 -56q0 -37 -6 -96q-10 -104 -15 -131q-2 -23 -22 -156q-6 -37 -9 -59.5t-8.5 -50l-11.5 -60.5l-28 -176q-12 -70 -27 -174l201 152q100 78 112 88q41 35 53.5 57.5t-10.5 30.5q-18 7 -58 7q-13 0 -30 -1l-6 49 q86 12 129 21q66 12 127 12q20 0 41 -4t27 -11q10 -10 12 -20q2 -8 2 -29q0 -14 -20.5 -40.5t-63.5 -63.5q-33 -29 -100 -78q-43 -33 -133 -88l-119 -74q31 -39 51 -73q49 -84 51 -91l49 -94l47 -82q20 -35 45 -59.5t41 -24.5q14 0 52 4q31 4 67 25l23 -43q-59 -51 -127 -90 q-57 -33 -101 -33q-35 0 -67 33q-39 39 -66 84q-35 57 -61 112l-60 121q-20 41 -57 109q-27 47 -53 74l-23 -156q-14 -123 -16 -133q-6 -61 -6 -103q0 -47 4 -61q-10 -4 -39 -18q-25 -10 -51 -23q-45 -20 -49 -23l-37 -18z" />
<glyph unicode="l" horiz-adv-x="501" d="M98 78q0 6 8 84q6 58 19 141l27 178q8 51 15 102.5t15 98.5q8 49 15.5 100.5l15.5 102.5l27 186q18 125 20 154q6 68 6 100q0 20 -4 37q-4 14 -10 20q-4 4 -16 9q-6 2 -21 2l-25 -4q-4 0 -32 -11q-20 -6 -43 -12l-17 49l90 37l88 35q53 18 74 24q31 8 49 9q31 0 45 -19 q16 -20 17 -63q0 -16 -8 -107q-2 -33 -21 -155q-2 -18 -7 -55.5t-10 -69t-9 -62.5l-15.5 -101l-15.5 -100l-33 -200q-6 -43 -27 -182q-18 -131 -20 -150q-6 -65 -6 -98q0 -37 8 -47q10 -12 27 -13q25 0 51 8q57 16 76 25l12 -45q-111 -70 -168 -94q-76 -33 -125 -33 q-28 0 -49 31q-23 33 -23 88z" />
<glyph unicode="m" horiz-adv-x="1505" d="M37 831l88 37l86 33q37 14 71.5 24.5t47.5 10.5q18 0 24 -4q8 -6 14.5 -18.5t6.5 -34.5q0 -6 1 -25.5t1 -32.5q0 -2 -1 -10t-1 -14q0 -4 -1 -15.5t-1 -17.5q0 -12 -4 -37q-2 -12 -2 -35q61 72 110 115q63 57 96 76q51 31 89 41q43 12 83 12q39 0 62 -14q27 -16 41 -39 t20 -56q6 -31 6 -63v-29q0 -20 -2 -33q68 74 107 109q59 51 90 72q45 29 82 41t76 12q27 0 53.5 -10.5t42.5 -28.5q16 -20 27 -55q10 -37 10 -82q0 -39 -6 -90q-2 -18 -17 -109q-12 -78 -20 -117l-21 -114q-2 -12 -6 -34t-6 -37t-4 -28q-6 -43 -6 -73.5t10 -44.5 q10 -12 27 -13q20 0 57 9q20 4 68 22l12 -45q-61 -37 -168 -90q-74 -37 -121 -37q-28 0 -49 31q-23 33 -23 86q0 18 7 61q2 16 8 53l8 50l23 125q18 104 22 129q14 100 16 118q6 55 7 86q0 57 -12.5 82t-28.5 25q-18 0 -43 -12q-31 -16 -56 -35q-35 -27 -67 -64 q-33 -35 -72 -94q-14 -20 -35 -65q-16 -37 -24 -68q-12 -47 -17 -80q-2 -12 -4 -26.5t-6 -34t-6 -31.5q-15 -92 -19 -154q-2 -31 -1.5 -56t1.5 -46q-10 -4 -38 -19q-10 -4 -22.5 -10t-27.5 -12l-51 -21l-37 -18l-32 33l22 111.5l19 97.5q22 108 36 202l25 170q8 66 8 111 q0 72 -14 94q-16 27 -39 27q-12 0 -37 -12q-31 -16 -55 -35q-41 -33 -68 -62q-35 -39 -69 -94q-16 -25 -35 -63q-4 -10 -25 -70q-10 -29 -20 -80q-4 -16 -9.5 -51t-7.5 -43q-12 -78 -20 -154q-3 -34 -4 -64q0 -19 2 -38l-37 -19q-6 -2 -20.5 -9t-28.5 -13q-8 -4 -17.5 -7 t-15.5 -6t-16.5 -7.5t-22.5 -11.5l-12 -7l-37 33q27 135 41 221q35 211 35 215q25 164 26 186q8 74 9 125q0 29 -3 37q-4 16 -8 21q-8 8 -12 10t-16 2q-2 0 -27 -4q-20 -4 -35 -8q-8 -2 -19.5 -6.5t-23.5 -8.5z" />
<glyph unicode="n" horiz-adv-x="1034" d="M43 831q63 29 88 37l88 33q33 12 76 25q35 10 45 10q8 0 20 -4q8 -2 13 -17q6 -25 6 -34q0 -6 1 -24.5t1 -33.5v-28q0 -4 -1 -16.5t-1 -18.5q0 -12 -4 -37q-2 -12 -2 -31q61 70 108 111q53 45 107 76q39 23 102 43q45 14 94 14q33 0 56 -8q25 -10 41 -29q18 -23 26 -51 q8 -31 8 -80q0 -34 -6 -86l-16 -111q-10 -57 -23 -118q-6 -33 -11 -65t-9 -54q-2 -14 -9 -50t-10 -53q-6 -46 -6 -73q0 -33 11 -47q8 -12 26 -13q27 0 51 8q45 16 68 25l20 -45q-72 -43 -88 -51l-79 -39q-35 -16 -66 -27q-35 -10 -51 -10q-34 0 -55 31q-23 33 -23 86 q0 2 8 63q12 88 15 105l22 127q6 35 21 129q2 8 8 49t8 59q6 49 6 72q0 72 -14 98q-16 29 -54 29q-8 0 -43 -14q-23 -10 -65 -41q-37 -29 -78 -72q-47 -51 -76 -100q-27 -47 -45 -115q-12 -47 -35 -164q-4 -18 -7 -46t-5 -36q-4 -23 -8 -67q-2 -20 -2 -58v-55l-37 -19 q-12 -4 -24.5 -10l-24.5 -12q-8 -4 -17.5 -7t-15.5 -6t-16 -7.5t-23 -11.5l-12 -7l-37 33q18 84 29 141l24 152l23 147q2 16 9 63.5t9 69.5q2 18 6.5 54l6.5 53q4 61 4 69q0 29 -2 37q-4 16 -7 21q-2 2 -12 8q-4 2 -16 2q-2 0 -27 -4q-20 -4 -35 -8q-8 -2 -19 -6.5t-24 -8.5 z" />
<glyph unicode="o" horiz-adv-x="878" d="M47 344q0 61 14 139q12 72 39 129q27 59 74 119q39 47 113 109q52 40 116 67q68 29 127 29q74 0 136 -29q55 -27 94 -78q33 -43 53 -118q18 -68 18 -152q0 -63 -16 -135q-16 -74 -45 -133q-31 -65 -74 -123t-98 -105q-25 -20 -57 -40q-20 -12 -62 -33q-16 -8 -63 -23 q-27 -8 -62 -8q-74 0 -129 28.5t-96 82.5q-40 52 -61 123q-21 67 -21 151zM221 406q0 -63 17 -125q16 -63 43 -105q31 -47 63 -70q41 -27 80 -26.5t76 21t59 51.5q31 43 45 75q18 45 31 88q12 46 18 93q4 31 4 88q0 152 -53 235q-51 80 -141 80q-45 0 -82 -18 q-35 -16 -62 -48q-25 -27 -45 -71q-18 -40 -30 -86q-8 -31 -17 -92q-6 -45 -6 -90z" />
<glyph unicode="p" horiz-adv-x="983" d="M-10 -469q2 25 12 88l25 141q6 35 15 80t17 97l35 192q8 43 12.5 69.5l9.5 57.5l11 68q29 174 29 178q18 127 20 143q6 61 6 94q0 20 -4 37q-4 14 -10 21q-4 6 -14 8q-6 2 -19 2q-4 0 -24 -4q-25 -4 -33 -8q-25 -8 -39 -13l-16 47q29 14 90 39t90 35l73 25q31 8 48 8 q23 0 36 -14q12 -12 13 -52q0 -28 -6 -73l-17 -123q61 86 115 139q45 45 96 78q41 27 82 37q33 8 68 8q43 0 77 -21q37 -23 64 -59q29 -41 43 -96t14 -133q0 -106 -30 -224q-31 -115 -93 -223q-16 -29 -53 -78q-35 -47 -63 -71q-31 -29 -74 -51q-39 -20 -82 -21 q-31 0 -63 18q-31 16 -64 50q-35 35 -61 69q-29 37 -58 82l-28 -172q-16 -88 -27 -180l-14 -129q-4 -70 -4 -86q0 -29 6 -45q-2 0 -39 -15q-8 -2 -22.5 -6t-28.5 -10l-50 -20q-33 -12 -36 -15zM291 305q20 -37 41 -59q31 -35 61 -60q33 -27 70 -45q33 -16 72 -16q53 0 88 27 q37 29 59 77q20 43 27 74q12 57 16 78q2 12 3 25.5t2 29t1 23.5q2 25 2 71q0 57 -10 113q-8 39 -27 82q-15 34 -37 49q-23 16 -45 17q-20 0 -59 -23q-25 -14 -78 -63q-41 -39 -84 -97q-35 -47 -74 -129q-2 -12 -7 -38.5t-7 -43.5q-4 -23 -7 -46t-7 -46z" />
<glyph unicode="q" horiz-adv-x="931" d="M47 305q0 82 21 156q23 80 59 145q33 59 96 129q55 61 125 107q10 6 62 35q35 18 69 30q16 6 72 21q31 8 65 8q45 0 84 -21q61 -33 74 -41q10 8 55 33l58 29l26 -45q-25 -20 -28 -25q-12 -10 -21 -26q-8 -14 -14 -35q-6 -22 -12 -55l-45 -267l-22.5 -138t-18.5 -118 q-23 -131 -37 -235q-6 -39 -23 -199q-10 -96 -10 -147q0 -61 10 -80l-37 -15q-33 -12 -51 -18q-27 -10 -51 -18q-33 -12 -37 -15l-39 31q12 70 17 107l24 159l33 203l37 227q-37 -55 -78 -104q-40 -49 -80 -86q-37 -35 -80 -57q-39 -20 -76 -21q-34 0 -73.5 18.5t-73.5 61.5 q-39 49 -57 106q-23 68 -23 160zM207 379q0 -53 14 -111q10 -45 35 -82q25 -39 47 -53q25 -16 53 -16q20 0 51 24.5t66 65.5q41 49 72 94q37 55 73 117l12.5 81t14.5 85q4 27 13.5 71.5t15.5 89.5q-27 20 -35 27q-25 16 -37 23q-29 14 -43 18q-23 6 -45 6q-43 0 -84 -22.5 t-74 -57.5q-35 -39 -61 -82q-31 -53 -47 -94q-25 -68 -31 -96q-10 -55 -10 -88z" />
<glyph unicode="r" horiz-adv-x="761" d="M37 829q10 4 39.5 18.5t48.5 20.5l88 33l74 25q37 10 47 10q8 0 20 -4q8 -2 13 -17q6 -25 6 -34q0 -6 1 -24.5t1 -31.5q0 -2 -4 -34.5t-6 -51.5l-7 -55l-4 -23.5t-4 -21.5q47 88 92 149q39 51 80 91q35 31 72 45q33 12 68 12q14 0 34 -10q12 -6 35 -25q10 -8 37 -27 q16 -14 41 -24q-16 -20 -29 -43l-32 -53q-20 -33 -31 -45q-16 -18 -27 -19q-20 0 -33 10q-20 16 -28 25l-25 25q-12 12 -29 12q-23 0 -59 -33q-33 -29 -67 -84q-27 -39 -64 -123q-27 -59 -51 -139q-8 -25 -21 -82q-6 -33 -14 -88q-8 -61 -10 -90q-2 -22 -2 -43t2 -41 q-6 -2 -16.5 -8t-22.5 -11q-6 -2 -20.5 -9t-28.5 -13l-47 -21q-8 -4 -20.5 -11t-14.5 -7l-37 33q6 25 15 74t14 71q8 41 26 150l23 141q2 16 9 60t9 67q8 82 10 107l5 77q0 29 -3 37q-4 14 -10 21q-4 4 -12 8q-4 2 -16 2q-6 0 -27 -4t-33 -8t-41 -13z" />
<glyph unicode="s" horiz-adv-x="735" d="M-8 102q0 12 12 37t30.5 49.5t35.5 40.5q18 18 28 19q8 0 17 -12q2 -4 20 -35q16 -29 29 -45q16 -20 41 -43q27 -25 57 -35q33 -12 76 -12q33 0 63.5 12t51.5 33q23 23 34 49q12 28 13 61q0 35 -17 68q-16 31 -45 57q-31 27 -61 45q-25 14 -74 39q-39 18 -88 51 q-33 23 -57 54q-23 29 -31 57q-8 27 -8 61q0 63 33 115q37 57 84 90q51 37 114 57q61 20 123 21q51 0 88 -12q49 -16 68 -27q10 -6 28.5 -18.5t22.5 -14.5q23 -14 47 -20q-37 -43 -39 -45l-12 -12.5l-13.5 -14.5t-11.5 -10q-25 -20 -35 -27q-16 -10 -22 -10q-15 0 -31 18 l-35 39q-29 29 -47 41q-28 18 -61 19q-27 0 -53 -11q-29 -10 -43 -24q-20 -20 -31 -41q-12 -25 -12 -53q0 -41 36 -78q41 -41 117 -76q70 -37 82 -45q45 -27 72 -57q33 -35 51 -74q20 -41 20 -94q0 -68 -36 -129q-37 -59 -97 -105q-70 -51 -129 -71q-71 -25 -135 -25 q-57 0 -102 14q-49 15 -86 37q-37 23 -60 47q-22 27 -22 45z" />
<glyph unicode="t" horiz-adv-x="649" d="M53 840l109 65h65l6 35q8 47 13 68q6 23 16 41q16 25 19 28q14 14 22 21l131 78l29 -25q-6 -10 -17 -33q0 -2 -6 -21.5l-10 -33.5q-8 -35 -18 -100l-11 -58h248l23 -31q-4 -6 -29 -30q-6 -6 -18.5 -17.5t-18.5 -17.5q-14 -14 -39 -31l-26 -18q-12 29 -45 37q-31 8 -107 8 h-4l-66 -426q-2 -6 -3 -20.5t-1 -20.5q-4 -29 -4 -41q0 -6 -1 -18.5t-1 -18.5t-1 -15t-1 -12q0 -61 22.5 -89.5t49.5 -28.5q39 0 84 14q55 16 125 49l20 -49q-53 -41 -102 -70q-78 -45 -98 -55q-41 -18 -82 -33q-37 -12 -64 -12q-29 0 -51 14q-29 18 -45 43q-18 29 -31 64 q-12 37 -12 80q0 6 1 19.5t1 19.5t1 18t1 21q0 14 4 43q2 14 6 51l76 473h-141z" />
<glyph unicode="u" horiz-adv-x="1046" d="M35 829q10 4 39.5 18.5t48.5 20.5l88 33l74 25q37 10 47 10q29 0 39 -18q10 -20 10 -66q0 -29 -6 -76q-2 -20 -17 -102q-8 -55 -18 -114.5t-18 -115.5q-14 -82 -17 -102q-6 -47 -6 -78q0 -76 20 -121q18 -39 52 -39q18 0 49 18.5t69 57.5q45 45 86 103q57 80 97 153 q2 14 7 42t7 42q10 51 14 82q8 53 11 76q4 45 4 61q0 29 -2 37q-4 16 -8 21q-6 6 -10.5 8t-16.5 2q-4 0 -25 -4q-16 -4 -28 -8l-37 -13l-17 47l40 18.5t46 20.5l86 33q43 16 70 25q35 10 47 10q28 0 37 -18q8 -16 8 -66q0 -28 -6 -74q-10 -78 -14 -100l-19 -111l-18 -112 q-4 -20 -14 -103q-6 -46 -7 -80q0 -92 12.5 -133t39.5 -41q18 0 51 8q31 8 61 21l15 -45q-78 -53 -143.5 -88t-104.5 -35q-23 0 -41 16q-20 16 -34.5 53.5t-25.5 96.5q-5 34 -5 84q0 24 1 57q-45 -76 -84 -123q-55 -68 -94 -98q-57 -47 -98 -63q-55 -23 -103 -23 q-23 0 -51 16q-27 14 -51 45q-23 29 -39 78t-16 107q0 31 6 74q2 8 5 41.5t7 54.5q4 23 9.5 49.5t9.5 56.5l16 103q2 14 14 90q4 27 4 65q0 29 -2 37q-4 16 -8 21q-2 2 -14 8q-4 2 -17 2q-4 0 -24 -4q-25 -4 -35 -8q-12 -4 -41 -13z" />
<glyph unicode="v" horiz-adv-x="933" d="M10 827q23 10 84 39q8 4 78 35l64 25q31 10 43 10q29 0 45 -29q15 -28 36 -98q2 -8 8.5 -36l10.5 -44q12 -52 24 -117l25 -137l23 -133q2 -18 8 -55t8 -51q6 -43 6 -58q68 106 125 215q37 72 84 176q27 63 47 129q16 55 16 74q0 20 -16 33q-12 10 -43 10q-25 0 -37 -2 q-20 -4 -41 -12l-18 45q8 4 26.5 12t38.5 19q6 2 32 14t40 16l66 21q27 8 51 8q34 0 55 -18q20 -18 21 -66q0 -29 -23 -92q-25 -68 -74 -162l-135 -242l-207 -342q-9 -6 -24 -12q-8 -4 -11.5 -5t-9.5 -3t-12 -6q-18 -8 -35 -17q-12 -8 -27 -12l-32 33q-2 20 -9.5 63t-9.5 62 q-14 100 -20 139l-25 141l-24 133q-12 61 -25 111q-4 14 -9 43t-9 39q-9 28 -18.5 43t-18.5 24.5t-19 12.5q-6 2 -16 2q-6 0 -27 -4q-25 -4 -32 -8q-25 -8 -39 -13z" />
<glyph unicode="w" horiz-adv-x="1320" d="M0 827l84 41l76 33l63 25q31 10 41 10q27 0 41 -33q12 -29 33 -104q6 -20 12 -74q2 -18 17 -107q6 -45 14 -120q8 -63 14 -123q8 -82 11 -107q0 -12 8 -71q25 49 78 165q37 82 73 177q25 66 53 168q20 80 25 143q8 8 37 28.5t43 28.5l41 21q16 8 31 8q4 0 10 -16 q6 -15 12 -43l14 -64q12 -53 17 -72q8 -37 14 -73.5t12 -67.5q2 -10 17 -100l18 -111q6 -41 15 -108q2 -20 7 -55.5t7 -45.5q55 100 113 219q39 80 71 168q20 53 37 125q10 43 10 86q0 20 -14 33q-16 12 -41 12q-6 0 -35 -4q-14 -2 -43 -10l-20 47q29 18 69 37q34 15 62 25 q37 12 51 14q29 4 35 4q20 0 31 -2q18 -4 26 -10q12 -9 19 -25q8 -20 8 -39q0 -28 -6 -61q-8 -45 -21 -82q-23 -68 -39 -111q-14 -35 -65 -147q-35 -76 -96 -195l-132 -248q-9 -6 -24 -12l-33 -16l-33 -17q-15 -9 -24 -12l-37 33l-12.5 90l-12.5 90q-18 135 -26 188 q-29 164 -29 166q-18 92 -27 123q-4 -25 -14 -59q-23 -76 -29 -90q-29 -78 -43 -111l-53 -121l-59 -125q-31 -63 -66 -118q-2 -2 -8 -6.5t-16 -8.5l-37 -18q-10 -4 -18.5 -8t-18.5 -11l-29 -14l-33 33q0 6 -6 52t-8 73l-16 139q-4 35 -7 69.5t-8 71.5q-2 27 -7 74t-7 61 q-4 49 -16 111q-2 14 -7.5 42l-7.5 38q-6 31 -14 43q-9 15 -18 25q-8 8 -21 12q-6 2 -18 2q-4 0 -24.5 -4t-33 -8.5t-41.5 -12.5z" />
<glyph unicode="x" horiz-adv-x="915" d="M-35 -4l98 92l109 107l109 116q84 94 98 111l-57 143q-23 57 -54 123q-20 45 -51 86q-25 33 -49 33q-2 0 -30.5 -4t-43.5 -8q-12 -2 -25.5 -6.5t-27.5 -8.5l-16 49q25 10 46 20.5l38 18.5l75 33q34 15 62 25q31 10 39 10q27 0 53 -33q35 -41 57 -88q31 -59 58 -123 q53 -131 59 -145q31 35 74 94l61 86q33 49 43 66q16 29 17 32q0 6 -5 19q-2 8 -16 12q-16 4 -31 4q-31 0 -51 -2l-4 51l66 13q18 4 61 8q37 4 53 4q8 0 21.5 1t17.5 1q51 0 74 -16q20 -14 20 -37q0 -18 -24 -54q-47 -66 -68 -88l-114 -127l-156 -168q18 -47 53 -131 q18 -43 53 -112q27 -51 50 -78q25 -29 45 -29q25 0 55 6q25 4 67 27l21 -47q-84 -59 -145 -92q-57 -31 -101 -31q-33 0 -59 29q-33 37 -58 80q-35 61 -57 114l-55 135l-109 -143q-88 -119 -127 -178q-18 -3 -43 -6q-16 -2 -53 -10q-8 -2 -26.5 -5.5t-26.5 -5.5 q-6 -2 -21.5 -5t-21.5 -5z" />
<glyph unicode="y" d="M-186 -436q0 12 12 37q16 33 29 49l36 47q20 25 31 29q45 -35 84 -48q31 -10 74 -10q72 0 143 72q78 78 152 205q-4 31 -27 131q-4 16 -14 68.5t-17 80.5l-19 76l-19 76q-16 68 -37 143q-20 72 -37 121q-23 63 -33 84q-18 45 -39 66q-16 16 -33 16q-6 0 -26.5 -4 t-30.5 -8q-12 -4 -41 -13l-14 47l84 39l36.5 17.5l38.5 17.5q34 15 62 25q25 8 41 8q29 0 47 -29q12 -16 41 -98q27 -74 41 -123q22 -71 43 -154l43 -170l41 -176q16 31 30.5 63l28.5 60q31 61 58 121l51 115q10 20 23.5 54l17.5 44q14 35 26 78q10 37 11 49q0 49 -54 53 q-14 2 -36 -4q-27 -8 -52 -18l-20 47q72 43 137 65q68 23 104 23q23 0 33 -2q18 -4 27 -10q12 -9 18 -25q6 -14 6 -39q0 -39 -20 -94q-27 -74 -64 -152l-110 -225l-160 -307q-82 -156 -133 -238q-70 -111 -137 -184q-70 -74 -148 -119q-74 -41 -161 -41q-33 0 -64 6 q-29 6 -53.5 16.5t-36.5 20.5q-14 13 -14 21z" />
<glyph unicode="z" horiz-adv-x="778" d="M-8 8q72 90 102 131l105 144l100 145l96 139l84 119l68 86h-279q-29 0 -41 -4q-18 -6 -30.5 -18.5t-26.5 -40.5q-16 -33 -29 -68l-47 10q16 76 41 166q14 49 29 119q4 -2 18.5 -5t24.5 -7q23 -8 61 -9h488l22 -34q-70 -76 -145 -172l-123 -170l-121 -177 q-74 -106 -141 -192q4 0 8 2q12 4 20 6l10 2q9 2 15 4q10 2 29 2q16 0 53 -10q45 -12 70 -20q29 -10 75 -21q35 -8 72 -8q12 0 21 2q16 4 28 14q14 12 33 33q6 8 37 60l43 -25q-18 -41 -51 -107q-20 -43 -47 -71q-25 -29 -60 -41t-82 -12q-43 0 -90 10q-14 2 -84 24l-74 23 q-37 10 -63 10q-23 0 -35 -4t-41 -16q-31 -12 -51 -25l-66 -33z" />
<glyph unicode="{" horiz-adv-x="655" d="M102 639q115 31 174 88q59 55 72 135q6 39 6 68v53q0 8 -1 24.5t-1 22.5t-1 21.5t-1 23.5v55q0 14 8 68q8 66 41 127q29 55 80 107q47 47 115 92q59 41 141 75l23 -57q-53 -33 -76 -53q-41 -37 -64 -68q-27 -37 -45 -78q-23 -51 -26 -88q-6 -37 -6 -65v-53q0 -33 2 -47.5 t2 -47.5v-55q0 -29 -6 -65q-6 -41 -24.5 -82t-45.5 -76q-31 -39 -61 -64q-43 -33 -78 -47q88 -18 118.5 -87.5t14.5 -180.5q-10 -70 -21 -102l-24 -82l-23 -76q-12 -43 -18 -86q-6 -51 -6 -90q0 -35 14 -74q12 -33 41 -61q37 -35 72 -58l-35 -71q-70 31 -131 71 q-53 35 -86 80q-33 43 -45 103q-12 53 -2 129q10 61 20 96q4 10 11.5 36.5l11.5 41.5q16 49 24 77q10 37 21 103q12 80 -19 121q-31 39 -98 39h-18q-2 0 -5.5 -1t-5.5 -1t-6 -1t-6 -1q-10 0 -18 -3z" />
<glyph unicode="|" horiz-adv-x="419" d="M39 -309l260 1855l55 31q14 8 58 22l30 -24l-260 -1856q-2 -2 -6 -5t-9 -6t-9 -5q-14 -8 -29 -14q-6 -2 -16.5 -7.5l-14.5 -7.5q-20 -8 -28 -10z" />
<glyph unicode="}" horiz-adv-x="655" d="M-82 -256q53 33 76 53q39 35 61 66q33 43 47 78q18 43 25 88q6 37 6 94q0 49 -2 71.5t-2 73.5q0 57 6 97t25 79q18 41 45 76q27 37 63 64q43 33 78 47q-92 23 -120.5 90t-12.5 180q12 80 18 100l25 82l23 78q12 41 18 84q6 35 6 92q0 33 -14 72q-12 33 -41 61 q-35 37 -72 58l37 71q78 -35 131 -69q51 -35 86 -82q33 -45 45 -100q10 -47 0 -129q-12 -74 -18 -97q-16 -53 -25 -78q-12 -37 -24 -79q-6 -25 -19 -101q-12 -80 19 -121q31 -39 96 -38h28q2 0 6.5 1t6.5 1l20 4l6 -66q-113 -31 -172 -88q-61 -58 -73 -135q-6 -40 -7 -68 v-53q0 -33 3 -47q4 -29 4 -45q0 -8 -1 -25.5t-1 -27.5q0 -29 -7 -70q-8 -66 -41 -127q-27 -51 -81 -106q-47 -47 -115 -93q-59 -41 -141 -75z" />
<glyph unicode="~" horiz-adv-x="980" d="M86 502q27 53 61 102q39 55 80 96q39 39 90 70q47 29 89 29q43 0 86 -25q39 -23 81 -55q49 -37 78 -55q41 -25 76 -25q45 0 90 39t96 121l45 -25q-27 -53 -61.5 -102t-81.5 -97q-41 -43 -88 -69q-47 -29 -88 -29t-82 25q-40 25 -80 55q-31 25 -82 55q-39 25 -82 25 q-49 0 -90 -39q-47 -45 -94 -123z" />
<glyph unicode="&#xa1;" horiz-adv-x="432" d="M-53 -510l198 1014q33 23 84 41l25 -23l-74 -956q-6 -4 -21.5 -13.5t-21.5 -13.5l-23.5 -14l-27.5 -17q-18 -10 -55 -26q-35 -16 -45 -19zM106 743q0 31 13 66q12 33 33 59q23 29 49 45.5t65 16.5q49 0 74 -29q25 -28 25 -74q0 -29 -13 -63q-12 -33 -33 -59 q-18 -23 -51 -43q-31 -18 -65 -19q-47 0 -72 28.5t-25 71.5z" />
<glyph unicode="&#xa2;" horiz-adv-x="858" d="M98 471q0 63 17 135q16 70 49 133q37 70 86 125q53 59 127 109q63 39 133 59l20 148l21 14q2 2 14 8l5 3q5 3 10 5q12 4 22 7l21 -23l-21 -141q16 2 49 2q43 0 82 -17q37 -15 68 -37q12 -8 30.5 -22t22.5 -18q27 -20 41 -25q-22 -15 -43 -37l-45 -43q-14 -14 -43 -35 q-20 -14 -32.5 -14t-22.5 16l-12.5 17.5l-14.5 21.5l-41 43q-22 22 -55 31l-94 -698q23 4 47 12q35 12 57 26q27 16 72 48q16 10 88 69q2 -2 9 -12l11 -16q8 -10 17 -23q-53 -51 -101 -88q-63 -51 -84 -64q-51 -33 -71 -40q-39 -18 -62 -25l-18 -135q-27 -23 -33 -25 q-4 -2 -17.5 -6t-21.5 -8l-20 22l20 138h-8q-14 0 -55 8q-27 6 -62 22q-29 14 -59 45q-33 33 -51 68q-23 43 -37 92q-15 51 -15 125zM272 510q0 -98 39 -166q37 -66 92 -90l93 680q-55 -18 -95 -62q-43 -47 -69 -104q-28 -61 -43 -129q-17 -72 -17 -129z" />
<glyph unicode="&#xa3;" horiz-adv-x="858" d="M-49 27q31 25 55 47q25 20 45 49q16 23 33 57q14 33 25 82l20 113q6 51 14 157h-102l-18 27q2 6 8 18.5t8 18.5l18 37h97q14 133 53 248q37 111 98 190q59 78 143 121t187 43q31 0 47 -2t53 -10q18 -4 60 -21q29 -10 69 -37q-2 -8 -5 -29.5t-7 -35.5q-2 -12 -9 -39 t-12 -43q-10 -51 -20 -80q-14 -43 -20 -55h-54q6 123 -39 186q-41 59 -133 59q-29 0 -45 -4q-25 -6 -47 -22q-31 -23 -47 -49q-20 -31 -39 -88q-23 -70 -33 -136q-8 -61 -16 -196h235l25 -27l-41 -74h-225q-12 -123 -58 -237q-41 -102 -102 -180q66 6 102 6q51 0 74 -2 l68 -4q35 -4 84 0q41 0 71 6q33 6 58 24q23 16 49 54q18 27 51 94l45 -21q-12 -57 -20 -86q-2 -6 -10.5 -35.5t-12.5 -44.5l-18 -63q-4 -16 -8.5 -26.5t-6.5 -16.5q-45 -27 -102 -29q-51 -2 -123 4q-68 6 -133 19q-45 8 -135 16q-55 4 -127 -2q-57 -6 -111 -39z" />
<glyph unicode="&#xa4;" horiz-adv-x="858" d="M86 319l123 117q-37 74 -25 164q6 47 25 92q14 33 45 76l-94 123l6 37q14 8 35 14q18 6 37 14l90 -116q37 25 77.5 39t79.5 14q47 0 78 -14q35 -16 64 -41l118 116h33l21 -71l-119 -117q18 -37 24.5 -80t0.5 -86q-6 -45 -25 -88q-20 -47 -45 -78l94 -123l-4 -37l-76 -26 l-88 114q-43 -27 -74 -36q-41 -12 -81 -13q-45 0 -80 15q-41 16 -64 37l-123 -117l-30 4l-4.5 9t-4.5 10t-4 11.5t-5 18.5t-5 18zM279 600q-4 -39 4 -65q10 -37 26 -60q23 -31 45 -43q27 -14 66 -14t69 14q35 14 59.5 41t41.5 59q14 31 20 70q4 29 -2 68q-6 29 -26 57 q-23 29 -47 43q-29 16 -64 16q-41 0 -71.5 -14t-57.5 -41q-23 -23 -43 -59q-16 -31 -20 -72z" />
<glyph unicode="&#xa5;" horiz-adv-x="858" d="M23 1194q25 6 55 12l61 13q20 4 57 8t46 4q12 0 28 -10q12 -8 27 -29q33 -59 59 -117q37 -80 60 -141q41 -106 51 -143q27 -86 35 -125l258 434q16 27 -4 41q-23 16 -82 24l6 52h332l-6 -52q-45 -10 -88 -26q-31 -12 -48 -39l-338 -580l-2 -10h220l18 -25l-35 -75h-215 l-35 -287q-4 -14 25 -33q33 -23 100 -39l-6 -51h-428l6 51q20 4 68 21q28 9 43 18q23 14 24 16q8 12 9 17l34 287h-227l-14 24l30 76h226l2 18q-18 74 -43 154q-27 84 -56 158q-41 102 -61 147q-35 78 -57 117q-6 8 -18.5 20.5t-22.5 14.5q-20 4 -37 4q-31 0 -53 -2z" />
<glyph unicode="&#xa6;" horiz-adv-x="419" d="M39 -309l111 796q27 16 59 31l59 23l35 -27l-115 -797q-16 -12 -24 -14l-15.5 -8t-17.5 -8t-17.5 -6.5t-17.5 -6.5l-26 -10zM182 739l115 809q70 39 121 51l33 -24l-111 -807q-4 -4 -13.5 -8t-13.5 -6q-18 -10 -34 -17q-6 -2 -16.5 -6t-16.5 -6l-31 -10z" />
<glyph unicode="&#xa7;" horiz-adv-x="882" d="M127 84l8 71.5t17 82.5q10 45 20 69l49 -10q-2 -37 12 -86q10 -35 39 -70q23 -27 62 -47q37 -18 80 -18q63 0 106 30q41 31 51 99q6 37 -10 69q-12 25 -45 54q-25 23 -67 47q-25 14 -74 47q-49 34 -92 67t-70 76q-29 47 -41 94q-12 49 -2 117q6 43 20 72q16 37 37 65 q22 31 49 56q37 33 56 45q-27 41 -39 82q-14 49 -6 98q10 61 39 106q31 45 75.5 78t98.5 47q51 14 106 15q33 0 68 -6.5t65 -18.5q41 -16 60 -26q29 -16 45 -33q4 -4 -2 -29q-4 -16 -20.5 -53t-26.5 -53q-4 -6 -11.5 -19.5t-11.5 -17.5l-43 8q-25 78 -65 115q-43 39 -91 39 q-53 0 -92 -29q-35 -27 -45 -78q-4 -29 6 -61q8 -23 33 -51.5t60 -53.5q34 -25 79 -55l95 -70q43 -34 73 -74q29 -37 45 -92q15 -52 7 -123q-12 -82 -54 -149q-39 -63 -86 -100q18 -29 29 -64q8 -31 2 -78q-8 -70 -35 -121q-23 -45 -59 -81q-35 -35 -74 -54q-45 -20 -76 -28 q-23 -6 -71 -11q-45 -4 -52 -4q-27 0 -53 6q-10 2 -57 17q-14 4 -60 26q-33 16 -57 33q-6 4 -4 33zM319 823q-6 -43 5 -78q10 -39 36 -67q39 -43 68 -66q43 -34 104 -73l43 -27q14 -8 43 -29q27 25 41 52q16 35 23 63q4 39 -6 84q-10 39 -37 72q-33 39 -74 69 q-76 55 -108 76q-4 2 -16.5 10.5l-18.5 12.5q-31 25 -33 26q-10 -6 -24 -24q-16 -20 -23 -33q-8 -16 -14 -35q-5 -13 -9 -33z" />
<glyph unicode="&#xa8;" horiz-adv-x="1040" d="M307 1180q0 20 10 55q8 29 29 55q16 23 43 39.5t57 16.5q37 0 56 -23q18 -20 18 -57q0 -33 -8 -60q-8 -29 -27 -53q-16 -23 -43 -39q-23 -14 -57 -14q-39 0 -57 20q-21 25 -21 60zM686 1180q0 20 10 55q10 33 26.5 55.5t43.5 39t55 16.5q35 0 58 -23q20 -20 20 -57 q0 -25 -10 -60q-8 -29 -27 -53q-16 -23 -43 -39q-23 -14 -57 -14q-39 0 -57 20q-19 23 -19 60z" />
<glyph unicode="&#xa9;" horiz-adv-x="1359" d="M88 526q0 82 25 187q20 88 65 178q43 86 105 160q55 68 139 127q77 55 166 85.5t190 30.5q121 0 209 -41q100 -47 160 -114q66 -76 102 -172q35 -92 35 -215q0 -100 -20 -191q-20 -94 -66 -182q-47 -96 -102 -164q-61 -76 -138 -131q-84 -59 -167 -88q-98 -33 -197 -33 q-113 0 -209 45q-98 45 -159.5 119t-100.5 180q-37 102 -37 219zM176 545q0 -101 31 -190.5t86 -153.5q57 -66 135 -103q84 -39 178 -39q88 0 162 27q77 28 141 74q74 53 119 108q59 74 90 135q35 70 58 154q18 68 18 162q0 104 -29 188q-31 89 -86 154q-53 63 -135 100 q-80 37 -176 37q-83 0 -160 -24q-78 -25 -143 -72q-68 -49 -119 -109q-55 -63 -90 -135q-39 -78 -59.5 -153.5t-20.5 -159.5zM330 526q0 49 10 111q8 51 35 111q25 57 69 110q47 57 107 103q16 14 53 32q20 10 66 27q33 12 71 18q37 6 68 6q45 0 76 -14q39 -18 59 -33 l45 -34q20 -18 35 -21l-39 -27l-39 -26q-18 -12 -34.5 -20.5t-28.5 -8.5q-10 0 -25 14q-4 4 -15.5 16.5t-17.5 18.5q-16 16 -42.5 32.5t-57.5 16.5q-40 0 -74 -18q-31 -16 -61.5 -51t-50.5 -72q-12 -23 -35 -86q-16 -47 -23 -88q-8 -57 -8 -84q0 -47 19 -98q14 -39 43 -72 q25 -29 65 -45q39 -16 78 -16q16 0 41 6q16 4 53 22.5t68 38.5q12 8 86 64q4 -4 10 -11.5t8 -11.5q6 -8 14 -20q-71 -61 -122 -99q-55 -39 -97 -59q-39 -20 -80 -27q-49 -8 -73 -8q-39 0 -80 15q-45 16 -84 49q-37 31 -66 92q-26 55 -26 147z" />
<glyph unicode="&#xaa;" horiz-adv-x="595" d="M53 608q8 20 13 29q2 2 7 11t7 16h463l20 -25q-8 -20 -12 -29l-12 -24h-465zM102 901q0 92 41 162q47 80 119 129q23 18 68 35q37 14 76 14q27 0 45 -10q37 -20 38 -23l31 19q10 6 31 14l10 -24q-6 -4 -14 -13q-2 -2 -6 -7t-6 -7q-4 -4 -9 -19q0 -2 -3 -11t-5 -17 q-6 -31 -14 -78q-2 -6 -6 -35t-6 -41q-3 -34 -7 -61q-2 -18 -2 -39q0 -57 6 -78q6 -23 20.5 -23t22.5 3q14 4 35 12l11 -25q-59 -37 -80 -45q-31 -14 -52 -14q-12 0 -20 6q-4 4 -16 23q-6 12 -15 45q-6 28 -6 73q-20 -33 -35 -51q-23 -29 -41 -47q-22 -22 -43 -37 q-16 -12 -45 -12q-23 0 -41 8q-16 8 -39 33q-16 20 -30 57q-13 35 -13 84zM195 942q0 -66 18 -104.5t47 -38.5q10 0 31 14q12 8 35 35q12 14 36 51q12 18 37 59l9 56q4 29 8 53q2 8 5 24.5t3 22.5l6 31q-23 18 -37 24q-25 10 -43 11q-39 0 -65 -25q-28 -25 -49 -61 q-20 -37 -31 -78q-10 -45 -10 -74z" />
<glyph unicode="&#xab;" horiz-adv-x="909" d="M55 418q4 25 6 35l2 24q2 10 5 12l389 410l39 -33l-13 -18q-10 -18 -28 -47q-10 -14 -19.5 -31.5l-19.5 -34.5l-47 -76l-47 -75l-41 -66l-29 -47l-10 -16l141 -416l-47 -35zM399 418q0 6 1 17t3 18l5 24q2 10 4 12l389 410l37 -33l-11 -18q-10 -18 -28 -47l-41 -66 l-47 -76l-47 -75q-10 -16 -19.5 -34t-19.5 -32l-29 -47l-10 -16l141 -416l-47 -35z" />
<glyph unicode="&#xac;" horiz-adv-x="858" d="M61 510l1 3q1 3 1 5t-1 7t-1 7v17q0 2 1 5l1 3q61 6 109 16q55 12 64 17q25 10 32 18q10 10 13 15h176q27 0 70.5 -1t60.5 -1h88q12 0 30.5 -1.5t24.5 -1.5q8 0 20 -1l21 -3l4 -108q-3 0 -6 -19q-2 -8 -3 -18t-5 -23q-4 -16 -12 -53q-4 -18 -13 -51l-10 -41 q-4 -16 -6 -16q-16 -12 -39 -19q-25 -6 -43 -12l-4 90l-141 158z" />
<glyph unicode="&#xad;" horiz-adv-x="653" d="M39 477q20 45 20 47l27 45h489l23 -24q-20 -47 -23 -51l-22 -43h-494z" />
<glyph unicode="&#xae;" horiz-adv-x="702" d="M135 1083.5q8 69.5 41 137.5q31 63 80 112q45 45 106.5 74t124.5 29q66 0 119 -29q52 -28 86 -74q35 -47 47 -112q12 -61 2 -138q-8 -70 -41 -137q-31 -63 -77 -110q-51 -51 -107 -76q-59 -27 -127 -27q-66 0 -117 27q-49 27 -86 76q-35 47 -47 110q-12 68 -4 137.5z M195 1083q-8 -55 2 -112q9 -52 36 -92q31 -43 70 -64q45 -23 98 -22q51 0 103 22q45 20 86 64q37 40 61 92q20 43 31 112q8 53 -2 113q-9 52 -37 92q-27 37 -72 64q-39 23 -98 22.5t-102 -22.5q-49 -27 -84 -64q-37 -40 -62 -92q-20 -41 -30 -113zM274 887l2 18q37 8 41 21 l43 321q-4 0 -10 -1t-8 -1q-12 0 -18 -2l2 31l57 12q31 6 68 6q35 0 61 -10q29 -10 41 -22q16 -16 22 -35q6 -20 5 -39q-6 -43 -37 -74q-23 -23 -70 -37l74 -137q6 -14 14 -14q12 0 31 8l2 -19l-2 -2l-21 -10l-20 -10q-8 -4 -21 -8q-6 -2 -14 -2q-10 0 -16 6t-8 10l-70 172 h-4q-16 0 -25 2l-20 -145q-2 -4 7 -10.5t28 -10.5l-2 -18h-132zM397 1110q2 0 6.5 -1t6.5 -1h10q41 0 67 16q23 14 29 54q2 14 0 28q-2 10 -12 25q-8 10 -27 18q-14 6 -41 6h-10l-2 -1q-2 -1 -4 -1z" />
<glyph unicode="&#xaf;" horiz-adv-x="835" d="M203 1184q2 4 5 12t5 12q8 20 14 31l15 29q4 8 14 24h598l23 -26q-4 -16 -11 -27l-14 -31l-16 -28q-6 -10 -15 -23h-602z" />
<glyph unicode="&#xb0;" horiz-adv-x="641" d="M180 918q0 37 15 86q8 29 36 77q20 35 52 66q33 33 61 51q31 18 68 33q35 12 65.5 12t63.5 -14q27 -12 49 -35q14 -14 31 -55q12 -31 12 -66q0 -70 -33 -131q-31 -57 -76 -100q-43 -41 -96 -66q-52 -25 -92 -24q-35 0 -68 14q-29 12 -47 35q-23 27 -31 53q-10 35 -10 64z M299 969q0 -49 20 -78q23 -33 58 -33q31 0 57 16q23 14 43 41q18 25 27 54q10 35 10 57q0 27 -4 41q-6 18 -16 37q-8 12 -25 22q-14 8 -35 9q-25 0 -49 -13q-23 -12 -43 -35q-18 -20 -31 -53q-12 -30 -12 -65z" />
<glyph unicode="&#xb1;" horiz-adv-x="784" d="M14 150l23 51q12 28 24 49h598l21 -29q-6 -18 -8 -22l-13 -29q-2 -6 -7 -14.5t-7 -10.5l-10 -20h-598zM86 657q2 4 3 10.5t5 12.5q2 4 6 13t6 14q6 14 13 26q2 6 6 11.5t6 11.5h238l37 268q2 0 9 3t11 5l29 8l28 9l12.5 4l12.5 4l20 -27l-39 -274h240l21 -27 q-4 -16 -8.5 -24.5t-6.5 -14.5t-6 -12q-2 -6 -7 -15.5t-7 -11.5l-10 -20h-234l-37 -269q-2 -2 -6 -3t-8 -3l-8 -4q-16 -8 -27 -10q-4 -2 -14.5 -4t-14.5 -4q-4 0 -11 -1t-11 -3l-23 22l39 279h-244z" />
<glyph unicode="&#xb2;" horiz-adv-x="604" d="M53 664q100 86 213 194q82 80 135 146q45 57 70 108q20 43 20.5 84t-24.5 64q-27 23 -72 22q-25 0 -45 -10q-23 -10 -33 -25q-16 -18 -20 -37q-8 -29 -10 -43q-4 -2 -13.5 -5t-13.5 -5q-12 -4 -33 -8q-6 -2 -17 -4t-17 -4q-25 -4 -31 -4l-17 24q4 33 31 66q28 34 68 61 q35 25 94 45q51 18 106 19q82 2 138 -33q51 -33 51 -100q0 -41 -19 -84q-16 -41 -69 -103q-57 -70 -131 -139q-80 -78 -207 -191h246q18 0 34 17q12 12 27 37q10 16 21 53l45 -10l-39 -189h-475z" />
<glyph unicode="&#xb3;" horiz-adv-x="602" d="M49 684l31 61q55 -43 94 -57q37 -14 84 -14q41 0 76 12q31 12 55 39q25 29 35 55q12 35 12 72q0 33 -10 57q-10 23 -26.5 37.5t-39.5 20.5q-29 8 -45 8h-14q-2 0 -4 -1t-4 -1h-8q-2 0 -7.5 -1t-9.5 -1l-2 51q90 23 140 61q49 40 49 111q0 37 -19 61q-20 27 -65 27 q-39 0 -66 -25q-29 -25 -24 -67q-16 -8 -62 -21q-23 -6 -63 -10l-17 27q2 20 29 53t59 55q37 25 86 41.5t99 16.5q52 0 86 -13q41 -14 57 -30q23 -23 31 -45q10 -27 10 -52q0 -66 -43 -112q-45 -49 -111 -70q35 -4 60 -18q29 -18 45 -37q16 -20 26 -49q8 -25 9 -58 q0 -55 -22.5 -106t-65.5 -88q-45 -39 -101 -60q-61 -23 -127 -22q-45 0 -106 22q-60 23 -111 70z" />
<glyph unicode="&#xb4;" horiz-adv-x="604" d="M170 1065l258 397q2 0 12.5 -3t16.5 -5q20 -4 41 -10q29 -8 41 -12q6 -2 15 -6.5t11 -4.5l19 -49l-363 -348q-10 2 -26 14q-7 4 -25 27z" />
<glyph unicode="&#xb5;" horiz-adv-x="1069" d="M2 -469q6 49 18 129q6 33 11.5 72t13.5 82l29 168l16 89t14 83l29 163l25 148q4 49 8 74q6 33 10 73q8 53 10 68q2 23 2 59q0 29 -2 37q-4 16 -8 20.5t-12 8.5q-4 2 -16 2q-4 0 -25 -4q-27 -4 -35 -8q-12 -4 -41 -13l-12 47q10 4 39.5 18.5t48.5 20.5q14 6 90 33 q47 16 76 25q37 10 45 10q28 0 37 -18q10 -20 10 -66q0 -10 -3 -35.5t-3 -34.5q-2 -23 -10 -86q-2 -16 -17 -92q-6 -37 -14 -92q-2 -10 -6 -40l-6 -44l-5 -66q0 -53 9 -92q10 -47 22 -69q18 -33 33 -45q20 -16 43 -17q25 0 57 17q25 12 64 51t71 88q49 72 80 133q8 61 15 92 q12 57 16 92q2 10 6 37l6 41q4 49 4 60q0 20 -4 65q-2 27 -14 51q18 6 45 17l55 20l56 19q6 2 49 14q18 -25 22 -41l-16 -78q-4 -25 -9 -51.5t-11.5 -57t-11.5 -63.5t-11 -61q-8 -43 -21 -125q-16 -104 -16 -111q-6 -53 -6 -84q0 -49 2 -65q4 -27 8 -39q6 -15 12 -19 q8 -4 15 -4q14 0 20 2t25 17q16 12 33 34q14 18 45 64l35 -39q-51 -92 -78 -127q-41 -53 -70 -78q-33 -27 -63.5 -39t-59.5 -12q-49 0 -74 72q-23 68 -26 198q-37 -66 -70 -110q-45 -59 -74 -86q-39 -37 -73 -53q-41 -20 -78 -21q-59 0 -111 47q-49 45 -80 127l-4 -29 q-14 -98 -8 -190q6 -88 19 -156q14 -78 26 -112q18 -51 21 -56l-43 -18l-62 -27l-61 -26q-18 -8 -39 -19z" />
<glyph unicode="&#xb6;" horiz-adv-x="1048" d="M86 903q12 84 55 155.5t107 123.5q65 52 147 80q86 29 180 28q6 0 22.5 -1t27.5 -1q20 0 65 -4q12 -2 36 -3t36 -1q12 -2 35.5 -2t36.5 -2l92 -8t86 -8h63l-8 -54q-74 -18 -100 -30q-37 -18 -39 -31l-178 -1280q-4 -12 26 -31q23 -12 96 -31l-8 -53h-557l8 53 q74 18 101 31q39 18 41 31l92 665q-25 -4 -37 -4q-6 0 -21.5 -1t-23.5 -1q-89 0 -166 25q-78 25 -129 69q-47 41 -74 119q-24 71 -12 166zM274 938q-8 -47 2 -111q9 -58 37 -104q29 -47 78 -76t127 -29h43l80 574q-16 2 -45 2q-8 0 -20.5 1t-18.5 1q-43 0 -98 -20 q-47 -18 -86 -54q-43 -39 -66 -82q-27 -51 -33 -102zM567 -135q-2 -10 8 -19q12 -8 23 -12q6 2 25 12q14 8 16 19l180 1288q-23 8 -71 21z" />
<glyph unicode="&#xb7;" horiz-adv-x="432" d="M100 596q0 31 12.5 61.5t33 57t51.5 45.5q27 16 65 16q45 0 70 -26q25 -29 24 -72q0 -31 -12 -64q-14 -37 -31 -59q-23 -29 -49 -45q-31 -18 -67 -18q-47 0 -72 28.5t-25 75.5z" />
<glyph unicode="&#xb8;" horiz-adv-x="323" d="M-139 -326q49 -23 88 -24q37 -2 65.5 10t40.5 31q14 20 14.5 42.5t-22.5 39.5q-20 14 -63 12q4 8 10 21.5t10 23.5t6 18q12 37 19 54q4 12 14 51q2 8 5 25.5t5 25.5l78 -2l-12 -63q-8 -33 -13 -48q57 -4 87 -32q33 -33 32 -80q0 -51 -32.5 -96t-84 -70t-114.5 -25 q-68 0 -131 37z" />
<glyph unicode="&#xb9;" horiz-adv-x="606" d="M96 610l8 49q47 6 84 13q31 6 52 12q4 2 26 16q8 6 8 13l70 446q4 33 4 37q0 16 -6 23q-3 3 -12 6h-27q-8 0 -45 -4q-31 -4 -72 -13l-10 47q10 2 35 10.5t35 10.5q57 16 88 27q20 6 31.5 10t24.5 9l30 11q61 25 63 25l23 -23l-96 -622q0 -4 4 -12.5t18 -14.5 q27 -10 43 -14q25 -6 76 -13l-8 -49h-447z" />
<glyph unicode="&#xba;" horiz-adv-x="507" d="M47 608q8 20 12 29q8 16 13 27h391l20 -25q-8 -20 -12 -29l-12 -24h-393zM100 926q0 74 29 141.5t100 122.5q25 18 64 37q31 14 69 14q47 0 76 -14q31 -16 51 -41q18 -23 29 -66q10 -41 10 -82q0 -39 -8 -71q-8 -35 -24 -70q-18 -39 -39 -66q-29 -35 -54 -55 q-33 -27 -65 -41q-37 -16 -70 -16q-41 0 -69 14q-33 16 -54 43q-18 25 -32 66q-13 37 -13 84zM197 956q0 -39 8 -65q12 -41 22 -55q18 -25 35 -37q20 -14 43 -15q33 0 60 23q20 18 38 57q14 31 21 74q6 41 6 72q0 76 -29 120q-29 43 -77 44q-39 0 -62 -21q-25 -20 -39 -53 q-14 -31 -20 -72t-6 -72z" />
<glyph unicode="&#xbb;" horiz-adv-x="909" d="M55 39l127 207l47 76q10 16 19.5 33.5t19.5 31.5l41 66q-4 10 -10 30q-2 8 -8 28.5t-17 47.5l-34 100l-35 101l-27 76l-10 30l47 33l279 -410v-12q0 -4 -1 -12t-1 -12q0 -8 -5 -25l-2 -10l-393 -414zM399 39l127 207l47 76q10 16 19.5 33.5t19.5 31.5l41 66l-10 30 q-10 31 -27 76l-34 100l-16.5 51.5t-16.5 49t-15.5 41t-13.5 35.5l-8 30l47 33l279 -410v-12q0 -8 -4 -24q-2 -4 -2.5 -12.5t-2.5 -12.5v-10l-393 -414z" />
<glyph unicode="&#xbc;" horiz-adv-x="1134" d="M117 0l893 1202q16 8 47 19q10 4 29.5 9t21.5 5l18 -29l-893 -1204q-20 -12 -47 -18q-20 -6 -53 -15zM131 637l6 37q31 2 66 10q39 8 43 10q16 6 22 12.5t6 10.5l52 360q4 29 4 31q0 10 -6.5 16t-30.5 6q-33 0 -96 -14l-9 37l58 16q35 10 69 23q16 6 33 11t35 11 q41 16 49 21l19 -18l-72 -500q0 -2 4 -10q2 -6 16 -13q2 0 35 -10q25 -8 62 -10l-7 -37h-358zM582 180l305 381l51 19q28 9 49 18l17 -18l-52 -353h62l10 -14q-20 -27 -51 -49h-29l-14 -103l1 -4l1 -4q0 -2 8 -6q6 -3 18 -6l33 -8l-4 -33h-266l4 33q8 2 55 8l33 8 q8 2 14.5 8t6.5 9l14 98h-250zM682 227h172l39 256z" />
<glyph unicode="&#xbd;" horiz-adv-x="1134" d="M117 0l893 1202q16 8 47 19q10 4 29.5 9t21.5 5l18 -29l-893 -1204q-20 -12 -47 -18q-20 -6 -53 -15zM131 637l6 37q31 2 66 10q39 8 43 10q16 6 22 12.5t6 10.5l52 360q4 29 4 31q0 10 -6.5 16t-30.5 6q-33 0 -96 -14l-9 37l58 16q35 10 69 23q16 6 33 11t35 11 q41 16 49 21l19 -18l-72 -500q0 -2 4 -10q2 -6 16 -13q2 0 35 -10q25 -8 62 -10l-7 -37h-358zM602 35l170 162q39 37 105 114q47 53 57 78q15 34 18 62q6 43 -12 63q-20 25 -63 25q-20 0 -35 -9q-20 -12 -29 -20q-14 -14 -20 -31q-8 -20 -9 -33q-23 -12 -45 -16 q-37 -8 -51 -10l-12 20q2 23 24 52q20 25 58 49q35 23 76 37q45 16 86 16q25 0 61 -8q27 -6 47 -23q18 -16 29 -41q8 -25 6 -55q-4 -37 -21 -66q-27 -45 -55 -75l-102 -105l-158 -149h197q18 0 30 12q8 8 21 29q8 14 14 43l35 -6l-29 -150h-383z" />
<glyph unicode="&#xbe;" horiz-adv-x="1134" d="M117 0l893 1202q16 8 47 19q10 4 29.5 9t21.5 5l18 -29l-893 -1204q-20 -12 -47 -18q-20 -6 -53 -15zM121 707l24 36q39 -31 78 -45q35 -12 74 -12q55 0 96 35q39 33 45 92q2 33 -4 57q-6 20 -22.5 37t-32.5 21q-23 6 -41 6h-12q-2 0 -3 -1l-4 -1h-8l-4 -1q-4 -1 -8 -1 l-2 41q57 14 74 24q37 20 47 31q18 18 24 37q8 25 9 35q4 33 -13 57q-15 25 -55 25q-37 0 -57.5 -20.5t-18.5 -53.5q-27 -12 -49 -16q-37 -8 -51 -9l-12 21q4 25 22 43q25 25 51 43q29 20 70 33q47 14 80 14q41 0 69 -12q33 -14 45 -29q16 -20 23 -41q6 -25 4 -47 q-2 -39 -37 -76q-31 -33 -88 -53q29 -4 51.5 -16.5t38.5 -32.5q16 -18 23 -45q6 -29 4 -54q-3 -43 -25 -79q-20 -35 -55 -64t-76 -43q-45 -16 -96 -16q-45 0 -90 18.5t-88 61.5zM582 180l305 381l51 19q28 9 49 18l17 -18l-52 -353h62l10 -14q-20 -27 -51 -49h-29l-14 -103 l1 -4l1 -4q0 -2 8 -6q6 -3 18 -6l33 -8l-4 -33h-266l4 33q8 2 55 8l33 8q8 2 14.5 8t6.5 9l14 98h-250zM682 227h172l39 256z" />
<glyph unicode="&#xbf;" horiz-adv-x="833" d="M-20 -287q0 92 26 154q31 74 66 121q35 49 90 100q53 51 92 94q43 49 76 103q37 59 45 125l12 94q6 6 20.5 14t18.5 10q12 8 45 21l21 -25l-3 -116q-4 -70 -26 -123q-25 -55 -62 -105l-75 -98q-47 -53 -76 -96q-45 -66 -60 -101q-23 -55 -22 -114q0 -94 41 -147.5 t119 -53.5q37 0 67 18q27 14 47 52q18 31 25 73q6 47 -2 90q31 16 84 31q29 8 86 16l24 -32q0 -66 -30 -127q-33 -66 -84 -111q-55 -49 -133 -80q-77 -31 -172 -30q-66 0 -115 18q-45 16 -82 53q-31 31 -47 78q-16 45 -16 94zM348 743q0 31 12 66q14 37 31 59q20 27 51 45 q27 16 68 17q47 0 71.5 -29t24.5 -76q0 -29 -12 -59q-14 -35 -33 -59q-20 -27 -51 -45q-27 -16 -66 -17q-45 0 -69 27q-27 30 -27 71z" />
<glyph unicode="&#xc0;" horiz-adv-x="1161" d="M-41 0l8 53q61 12 101 25q37 12 51 43l479 1100l39 28q6 4 45 27q4 2 13.5 8t16.5 10t13 6q37 14 39 17l219 -1196q4 -18 8 -25q6 -9 19 -18q10 -8 30 -15q23 -8 52 -10l-7 -53h-409l6 53q72 6 100 21q31 16 25 47l-55 317h-381l-138 -317q-12 -31 17 -43q33 -12 104 -25 l-6 -53h-389zM416 541h315l-92 520zM397 1585l15 51l30 20q2 2 39 23l41 20l33 17l303 -320q-20 -29 -24 -33q-12 -12 -27 -20z" />
<glyph unicode="&#xc1;" horiz-adv-x="1161" d="M-41 0l8 53q61 12 101 25q37 12 51 43l479 1100l39 28q6 4 45 27q4 2 13.5 8t16.5 10t13 6q37 14 39 17l219 -1196q4 -18 8 -25q6 -9 19 -18q10 -8 30 -15q23 -8 52 -10l-7 -53h-409l6 53q72 6 100 21q31 16 25 47l-55 317h-381l-138 -317q-12 -31 17 -43q33 -12 104 -25 l-6 -53h-389zM416 541h315l-92 520zM547 1396l381 320q16 -12 29 -19l32 -20l16.5 -12.5t16.5 -10.5q15 -9 25 -18v-51l-461 -242q-18 10 -23 20z" />
<glyph unicode="&#xc2;" horiz-adv-x="1161" d="M-41 0l8 53q61 12 101 25q37 12 51 43l479 1100l39 28q6 4 45 27q4 2 13.5 8t16.5 10t13 6q37 14 39 17l219 -1196q4 -18 8 -25q6 -9 19 -18q10 -8 30 -15q23 -8 52 -10l-7 -53h-409l6 53q72 6 100 21q31 16 25 47l-55 317h-381l-138 -317q-12 -31 17 -43q33 -12 104 -25 l-6 -53h-389zM416 541h315l-92 520zM424 1392l281 303h100l199 -303l-14.5 -18.5t-10.5 -12.5q-4 -4 -26 -18l-222 195l-270 -195q-9 6 -18 18q-13 17 -19 31z" />
<glyph unicode="&#xc3;" horiz-adv-x="1161" d="M-41 0l8 53q61 12 101 25q37 12 51 43l479 1100l39 28q6 4 45 27q4 2 13.5 8t16.5 10t13 6q37 14 39 17l219 -1196q4 -18 8 -25q6 -9 19 -18q10 -8 30 -15q23 -8 52 -10l-7 -53h-409l6 53q72 6 100 21q31 16 25 47l-55 317h-381l-138 -317q-12 -31 17 -43q33 -12 104 -25 l-6 -53h-389zM416 541h315l-92 520zM385 1390q25 47 49 84q29 45 62 78q41 41 69 57q39 23 78 23q35 0 68 -17q29 -14 57 -36q4 -4 21.5 -18.5t27.5 -20.5q27 -16 47 -17q39 0 76 31q39 33 74 88l53 -25q-18 -33 -49 -81q-29 -43 -59 -78q-31 -33 -72 -58q-39 -23 -78 -22 q-37 0 -61 16l-23 15q-23 14 -33 22t-27.5 20.5t-23.5 16.5q-23 16 -55 16q-37 0 -72 -30q-37 -35 -78 -86z" />
<glyph unicode="&#xc4;" horiz-adv-x="1161" d="M-41 0l8 53q61 12 101 25q37 12 51 43l479 1100l39 28q6 4 45 27q4 2 13.5 8t16.5 10t13 6q37 14 39 17l219 -1196q4 -18 8 -25q6 -9 19 -18q10 -8 30 -15q23 -8 52 -10l-7 -53h-409l6 53q72 6 100 21q31 16 25 47l-55 317h-381l-138 -317q-12 -31 17 -43q33 -12 104 -25 l-6 -53h-389zM416 541h315l-92 520zM432 1464q0 20 11 55q10 33 26.5 55.5t43 39t56.5 16.5q37 0 56 -23q20 -25 20 -57q0 -25 -10 -60q-8 -29 -27 -53q-16 -23 -43 -39q-23 -14 -57 -14q-39 0 -57.5 20.5t-18.5 59.5zM809 1464q0 20 10 55q10 33 26.5 55.5t43.5 39t57 16.5 q33 0 56 -23q20 -20 20 -57q0 -33 -8 -60q-8 -25 -29 -53q-16 -23 -43 -39q-23 -14 -57 -14q-37 0 -55 20q-21 25 -21 60z" />
<glyph unicode="&#xc5;" horiz-adv-x="1161" d="M-41 0l8 53q61 12 101 25q37 12 51 43l479 1100l39 28q6 4 45 27q4 2 13.5 8t16.5 10t13 6q37 14 39 17l219 -1196q4 -18 8 -25q6 -9 19 -18q10 -8 30 -15q23 -8 52 -10l-7 -53h-409l6 53q72 6 100 21q31 16 25 47l-55 317h-381l-138 -317q-12 -31 17 -43q33 -12 104 -25 l-6 -53h-389zM416 541h315l-92 520zM551 1474q0 49 19 94q18 46 49 86q29 39 74 64q43 25 92 24q25 0 51 -10q25 -10 41 -29q15 -18 24 -43q10 -27 11 -55q0 -41 -19 -88q-16 -41 -49 -84q-29 -39 -74 -63q-43 -25 -92 -25q-27 0 -51 10q-27 12 -41 29q-16 20 -25 41 q-10 26 -10 49zM649 1517q0 -33 17 -59q16 -25 45 -25q23 0 41 12q20 12 33 33q12 18 18 43q8 33 8 47q0 37 -14 60q-15 25 -43 24q-27 0 -45 -12q-23 -14 -33 -31q-16 -23 -20 -43q-7 -24 -7 -49z" />
<glyph unicode="&#xc6;" horiz-adv-x="1486" d="M-37 0l8 53q72 14 97 25q35 14 51 43l506 1001q8 16 2 28.5t-27 23.5q-6 2 -51 16q-2 0 -76 16l8 54h981l25 -27q-2 -6 -5 -26.5t-7 -32.5l-19 -68l-18 -66q-10 -37 -19 -51h-51q6 96 -4 131q-12 39 -49 39h-322l-57 -424h364l23 -30q-6 -10 -23 -31q-12 -16 -26 -33 q-4 -6 -13.5 -14.5t-13.5 -14.5l-22 -22q-25 31 -60 43q-37 12 -102 12h-139l-68 -481q-2 -12 4 -27q6 -10 25 -20q18 -9 55 -13q49 -4 96 -4h105q43 0 73 6q33 6 56 27q27 23 49 57.5t51 94.5l45 -21l-20 -84q-10 -41 -21 -76q-8 -33 -18 -63.5t-15 -40.5h-806l8 53 q57 14 98 31q35 14 39 31l70 530h-238l-264 -524q-16 -29 8 -43q25 -15 92 -25l-6 -53h-379zM555 735h209l53 402q0 10 -6 16q-4 4 -18 4q-10 0 -25 -10q-12 -8 -20 -27z" />
<glyph unicode="&#xc7;" horiz-adv-x="1009" d="M72 459q0 94 18 192q16 90 59.5 188.5t100.5 176.5q61 84 145 151q70 55 162 90q86 33 184 33q94 0 174 -28q76 -29 121 -72q4 -6 -8 -27q-14 -27 -31 -47q-25 -33 -39 -49t-34 -37l-39 10q-18 25 -41 47q-25 27 -53 41q-27 14 -64 24.5t-76 10.5q-35 0 -84 -16 q-43 -14 -86 -47q-63 -47 -106 -123q-47 -80 -72 -156q-27 -78 -39 -162q-12 -80 -12 -143q0 -106 29 -186q29 -78 73 -127q49 -51 101 -72q57 -23 102 -22q16 0 61 8q34 6 74 24q49 23 88 47q51 31 107 76q4 -2 8 -10l8 -16l8 -17q2 -6 7 -10q-63 -63 -130 -113 q-57 -43 -118 -73q-53 -27 -107 -39q-35 -8 -57 -11q-4 -20 -6 -36q-8 -33 -13 -48q57 -4 86 -32q31 -31 31 -80q0 -53 -31 -96q-33 -45 -84 -70q-52 -25 -116.5 -25t-128.5 37l-2 49q49 -23 86 -24.5t65 10.5q31 14 43 31q14 20 14.5 42.5t-22 39t-63.5 12.5q23 59 24 63 q12 37 19 54q4 12 14 51q0 4 2 11t2 11q-63 6 -113 29q-68 33 -125 96q-55 61 -86 152q-30 88 -30 207z" />
<glyph unicode="&#xc8;" horiz-adv-x="966" d="M-2 0l6 53q61 14 100 31q35 14 39 31l144 1030q2 12 -29 31q-23 14 -94 30l6 54h766l27 -27q0 -4 -5.5 -25.5t-9.5 -33.5q-2 -10 -8 -33t-8 -35l-11.5 -35.5t-9.5 -30.5q-10 -37 -18 -51h-53q4 36 3 64q0 42 -7 67q-12 39 -50 39h-325l-60 -424h373l23 -30l-23 -31 l-26 -33q-8 -10 -27 -29q-16 -16 -25 -22q-18 18 -30 26q-18 12 -43 19q-20 4 -60 8q-25 2 -88 2h-86l-63 -481q-4 -16 2 -26.5t24 -20.5q18 -9 56 -13q49 -4 96 -4h110q41 0 72 6q33 6 55 27q29 25 47 57q35 59 52 95l47 -21l-21 -84q-10 -41 -20 -76q-8 -33 -19 -63 l-16 -41h-813zM294 1585l15 51l30 20q2 2 39 23l41 20l33 17l303 -320q-20 -29 -24 -33q-12 -12 -27 -20z" />
<glyph unicode="&#xc9;" horiz-adv-x="966" d="M-2 0l6 53q61 14 100 31q35 14 39 31l144 1030q2 12 -29 31q-23 14 -94 30l6 54h766l27 -27q0 -4 -5.5 -25.5t-9.5 -33.5q-2 -10 -8 -33t-8 -35l-11.5 -35.5t-9.5 -30.5q-10 -37 -18 -51h-53q4 36 3 64q0 42 -7 67q-12 39 -50 39h-325l-60 -424h373l23 -30l-23 -31 l-26 -33q-8 -10 -27 -29q-16 -16 -25 -22q-18 18 -30 26q-18 12 -43 19q-20 4 -60 8q-25 2 -88 2h-86l-63 -481q-4 -16 2 -26.5t24 -20.5q18 -9 56 -13q49 -4 96 -4h110q41 0 72 6q33 6 55 27q29 25 47 57q35 59 52 95l47 -21l-21 -84q-10 -41 -20 -76q-8 -33 -19 -63 l-16 -41h-813zM444 1396l381 320q16 -12 29 -19l32 -20l16.5 -12.5t16.5 -10.5q15 -9 25 -18v-51l-461 -242q-18 10 -23 20z" />
<glyph unicode="&#xca;" horiz-adv-x="966" d="M-2 0l6 53q61 14 100 31q35 14 39 31l144 1030q2 12 -29 31q-23 14 -94 30l6 54h766l27 -27q0 -4 -5.5 -25.5t-9.5 -33.5q-2 -10 -8 -33t-8 -35l-11.5 -35.5t-9.5 -30.5q-10 -37 -18 -51h-53q4 36 3 64q0 42 -7 67q-12 39 -50 39h-325l-60 -424h373l23 -30l-23 -31 l-26 -33q-8 -10 -27 -29q-16 -16 -25 -22q-18 18 -30 26q-18 12 -43 19q-20 4 -60 8q-25 2 -88 2h-86l-63 -481q-4 -16 2 -26.5t24 -20.5q18 -9 56 -13q49 -4 96 -4h110q41 0 72 6q33 6 55 27q29 25 47 57q35 59 52 95l47 -21l-21 -84q-10 -41 -20 -76q-8 -33 -19 -63 l-16 -41h-813zM321 1392l281 303h100l199 -303l-14.5 -18.5t-10.5 -12.5q-4 -4 -26 -18l-222 195l-270 -195q-9 6 -18 18q-13 17 -19 31z" />
<glyph unicode="&#xcb;" horiz-adv-x="966" d="M-2 0l6 53q61 14 100 31q35 14 39 31l144 1030q2 12 -29 31q-23 14 -94 30l6 54h766l27 -27q0 -4 -5.5 -25.5t-9.5 -33.5q-2 -10 -8 -33t-8 -35l-11.5 -35.5t-9.5 -30.5q-10 -37 -18 -51h-53q4 36 3 64q0 42 -7 67q-12 39 -50 39h-325l-60 -424h373l23 -30l-23 -31 l-26 -33q-8 -10 -27 -29q-16 -16 -25 -22q-18 18 -30 26q-18 12 -43 19q-20 4 -60 8q-25 2 -88 2h-86l-63 -481q-4 -16 2 -26.5t24 -20.5q18 -9 56 -13q49 -4 96 -4h110q41 0 72 6q33 6 55 27q29 25 47 57q35 59 52 95l47 -21l-21 -84q-10 -41 -20 -76q-8 -33 -19 -63 l-16 -41h-813zM332 1464q0 20 11 55q10 33 26.5 55.5t43 39t56.5 16.5q37 0 56 -23q20 -25 20 -57q0 -25 -10 -60q-8 -29 -27 -53q-16 -23 -43 -39q-23 -14 -57 -14q-39 0 -57.5 20.5t-18.5 59.5zM709 1464q0 20 10 55q10 33 26.5 55.5t43.5 39t57 16.5q33 0 56 -23 q20 -20 20 -57q0 -33 -8 -60q-8 -25 -29 -53q-16 -23 -43 -39q-23 -14 -57 -14q-37 0 -55 20q-21 25 -21 60z" />
<glyph unicode="&#xcc;" horiz-adv-x="591" d="M18 0l9 53q57 14 98 31q39 16 41 31l139 1030q2 12 -29 31q-25 14 -92 30l9 54h434l-9 -54q-74 -18 -100 -30q-37 -18 -39 -31l-141 -1030q-4 -12 27 -31q23 -12 96 -31l-8 -53h-435zM108 1585l15 51l30 20q2 2 39 23l41 20l33 17l303 -320q-20 -29 -24 -33 q-12 -12 -27 -20z" />
<glyph unicode="&#xcd;" horiz-adv-x="591" d="M18 0l9 53q57 14 98 31q39 16 41 31l139 1030q2 12 -29 31q-25 14 -92 30l9 54h434l-9 -54q-74 -18 -100 -30q-37 -18 -39 -31l-141 -1030q-4 -12 27 -31q23 -12 96 -31l-8 -53h-435zM258 1396l381 320q16 -12 29 -19l32 -20l16.5 -12.5t16.5 -10.5q15 -9 25 -18v-51 l-461 -242q-18 10 -23 20z" />
<glyph unicode="&#xce;" horiz-adv-x="591" d="M18 0l9 53q57 14 98 31q39 16 41 31l139 1030q2 12 -29 31q-25 14 -92 30l9 54h434l-9 -54q-74 -18 -100 -30q-37 -18 -39 -31l-141 -1030q-4 -12 27 -31q23 -12 96 -31l-8 -53h-435zM135 1392l281 303h100l199 -303l-14.5 -18.5t-10.5 -12.5q-4 -4 -26 -18l-222 195 l-270 -195q-9 6 -18 18q-13 17 -19 31z" />
<glyph unicode="&#xcf;" horiz-adv-x="591" d="M18 0l9 53q57 14 98 31q39 16 41 31l139 1030q2 12 -29 31q-25 14 -92 30l9 54h434l-9 -54q-74 -18 -100 -30q-37 -18 -39 -31l-141 -1030q-4 -12 27 -31q23 -12 96 -31l-8 -53h-435zM143 1464q0 20 11 55q10 33 26.5 55.5t43 39t56.5 16.5q37 0 56 -23q20 -25 20 -57 q0 -25 -10 -60q-8 -29 -27 -53q-16 -23 -43 -39q-23 -14 -57 -14q-39 0 -57.5 20.5t-18.5 59.5zM520 1464q0 20 10 55q10 33 26.5 55.5t43.5 39t57 16.5q33 0 56 -23q20 -20 20 -57q0 -33 -8 -60q-8 -25 -29 -53q-16 -23 -43 -39q-23 -14 -57 -14q-37 0 -55 20 q-21 25 -21 60z" />
<glyph unicode="&#xd0;" horiz-adv-x="1146" d="M-2 0l6 53q61 14 100 31q35 14 39 31l68 493h-125l-18 29l34 74h123l66 471l-150 -19v74q121 29 234 41q121 12 221 12q131 0 223 -39q102 -43 162 -108q66 -72 98.5 -170.5t32.5 -224.5q0 -88 -18 -177q-20 -102 -54 -174q-35 -76 -90 -155q-53 -74 -121 -127 q-70 -53 -153 -84q-86 -31 -184 -31h-494zM324 147q-2 -14 4 -24q8 -12 22 -19q18 -8 45 -10q20 -2 74 -2q76 0 135 27q57 27 111 76q49 47 88 108q43 68 65 135q29 82 39 144q12 74 13 145q0 109 -25 195t-74 147q-51 63 -122.5 96t-172.5 33h-28q-6 0 -16.5 -1t-14.5 -1 l-68 -485h236l20 -27l-34 -76h-234z" />
<glyph unicode="&#xd1;" horiz-adv-x="1247" d="M0 0l6 53q66 8 103 29q31 16 34 33l142 1026q-23 29 -56 45q-27 14 -71 20l8 54h203h32q4 0 21 -11q4 -4 16 -22q4 -6 12.5 -21.5t12.5 -23.5l473 -899l119 862q0 6 -6.5 14t-18.5 17q-20 12 -37 18q-12 4 -59 12l6 54h373l-6 -54q-70 -10 -101 -26q-33 -16 -35 -35 l-163 -1176q-55 6 -90 25q-39 20 -60 63l-479 920l-119 -862q-3 -12 25 -31q27 -18 96 -31l-8 -53h-373zM428 1390q25 47 49 84q29 45 62 78q41 41 69 57q39 23 78 23q35 0 68 -17q29 -14 57 -36q4 -4 21.5 -18.5t27.5 -20.5q27 -16 47 -17q39 0 76 31q39 33 74 88l53 -25 q-18 -33 -49 -81q-29 -43 -59 -78q-31 -33 -72 -58q-39 -23 -78 -22q-37 0 -61 16l-23 15q-23 14 -33 22t-27.5 20.5t-23.5 16.5q-23 16 -55 16q-37 0 -72 -30q-37 -35 -78 -86z" />
<glyph unicode="&#xd2;" horiz-adv-x="1134" d="M86 485q0 78 10 138q10 63 35 141q18 59 53 133q31 63 72 121q57 74 90 106q51 51 106.5 86t123 57.5t139.5 22.5q100 0 176 -41q72 -39 123 -112q47 -68 71.5 -164t24.5 -199q0 -57 -14.5 -143t-34.5 -146q-20 -61 -60 -137q-29 -59 -79 -123q-41 -51 -93 -100 q-55 -51 -104 -82q-47 -29 -117 -53q-59 -20 -127 -21q-96 0 -172 41q-78 41 -125 111q-49 71 -73 166q-25 94 -25 198zM266 532q0 -92 19 -172q16 -76 53 -137q33 -55 84 -88q53 -33 108 -33q72 0 132 31q61 33 102 82q49 59 76 119q29 66 51 139q18 63 28.5 145t10.5 138 q0 94 -17 159q-18 76 -51 129.5t-84 85.5q-53 33 -112 33q-68 0 -129 -28q-51 -25 -100.5 -80.5t-76.5 -112.5q-33 -70 -53 -135q-22 -71 -31 -141q-10 -79 -10 -134zM401 1585l15 51l30 20q2 2 39 23l41 20l33 17l303 -320q-20 -29 -24 -33q-12 -12 -27 -20z" />
<glyph unicode="&#xd3;" horiz-adv-x="1134" d="M86 485q0 78 10 138q10 63 35 141q18 59 53 133q31 63 72 121q57 74 90 106q51 51 106.5 86t123 57.5t139.5 22.5q100 0 176 -41q72 -39 123 -112q47 -68 71.5 -164t24.5 -199q0 -57 -14.5 -143t-34.5 -146q-20 -61 -60 -137q-29 -59 -79 -123q-41 -51 -93 -100 q-55 -51 -104 -82q-47 -29 -117 -53q-59 -20 -127 -21q-96 0 -172 41q-78 41 -125 111q-49 71 -73 166q-25 94 -25 198zM266 532q0 -92 19 -172q16 -76 53 -137q33 -55 84 -88q53 -33 108 -33q72 0 132 31q61 33 102 82q49 59 76 119q29 66 51 139q18 63 28.5 145t10.5 138 q0 94 -17 159q-18 76 -51 129.5t-84 85.5q-53 33 -112 33q-68 0 -129 -28q-51 -25 -100.5 -80.5t-76.5 -112.5q-33 -70 -53 -135q-22 -71 -31 -141q-10 -79 -10 -134zM553 1396l381 320q16 -12 29 -19l32 -20l16.5 -12.5t16.5 -10.5q15 -9 25 -18v-51l-461 -242 q-18 10 -23 20z" />
<glyph unicode="&#xd4;" horiz-adv-x="1134" d="M86 485q0 78 10 138q10 63 35 141q18 59 53 133q31 63 72 121q57 74 90 106q51 51 106.5 86t123 57.5t139.5 22.5q100 0 176 -41q72 -39 123 -112q47 -68 71.5 -164t24.5 -199q0 -57 -14.5 -143t-34.5 -146q-20 -61 -60 -137q-29 -59 -79 -123q-41 -51 -93 -100 q-55 -51 -104 -82q-47 -29 -117 -53q-59 -20 -127 -21q-96 0 -172 41q-78 41 -125 111q-49 71 -73 166q-25 94 -25 198zM266 532q0 -92 19 -172q16 -76 53 -137q33 -55 84 -88q53 -33 108 -33q72 0 132 31q61 33 102 82q49 59 76 119q29 66 51 139q18 63 28.5 145t10.5 138 q0 94 -17 159q-18 76 -51 129.5t-84 85.5q-53 33 -112 33q-68 0 -129 -28q-51 -25 -100.5 -80.5t-76.5 -112.5q-33 -70 -53 -135q-22 -71 -31 -141q-10 -79 -10 -134zM430 1392l281 303h100l199 -303l-14.5 -18.5t-10.5 -12.5q-4 -4 -26 -18l-222 195l-270 -195q-9 6 -18 18 q-13 17 -19 31z" />
<glyph unicode="&#xd5;" horiz-adv-x="1134" d="M86 485q0 78 10 138q10 63 35 141q18 59 53 133q31 63 72 121q57 74 90 106q51 51 106.5 86t123 57.5t139.5 22.5q100 0 176 -41q72 -39 123 -112q47 -68 71.5 -164t24.5 -199q0 -57 -14.5 -143t-34.5 -146q-20 -61 -60 -137q-29 -59 -79 -123q-41 -51 -93 -100 q-55 -51 -104 -82q-47 -29 -117 -53q-59 -20 -127 -21q-96 0 -172 41q-78 41 -125 111q-49 71 -73 166q-25 94 -25 198zM266 532q0 -92 19 -172q16 -76 53 -137q33 -55 84 -88q53 -33 108 -33q72 0 132 31q61 33 102 82q49 59 76 119q29 66 51 139q18 63 28.5 145t10.5 138 q0 94 -17 159q-18 76 -51 129.5t-84 85.5q-53 33 -112 33q-68 0 -129 -28q-51 -25 -100.5 -80.5t-76.5 -112.5q-33 -70 -53 -135q-22 -71 -31 -141q-10 -79 -10 -134zM391 1390q25 47 49 84q29 45 62 78q41 41 69 57q39 23 78 23q35 0 68 -17q29 -14 57 -36q4 -4 21.5 -18.5 t27.5 -20.5q27 -16 47 -17q39 0 76 31q39 33 74 88l53 -25q-18 -33 -49 -81q-29 -43 -59 -78q-31 -33 -72 -58q-39 -23 -78 -22q-37 0 -61 16l-23 15q-23 14 -33 22t-27.5 20.5t-23.5 16.5q-23 16 -55 16q-37 0 -72 -30q-37 -35 -78 -86z" />
<glyph unicode="&#xd6;" horiz-adv-x="1134" d="M86 485q0 78 10 138q10 63 35 141q18 59 53 133q31 63 72 121q57 74 90 106q51 51 106.5 86t123 57.5t139.5 22.5q100 0 176 -41q72 -39 123 -112q47 -68 71.5 -164t24.5 -199q0 -57 -14.5 -143t-34.5 -146q-20 -61 -60 -137q-29 -59 -79 -123q-41 -51 -93 -100 q-55 -51 -104 -82q-47 -29 -117 -53q-59 -20 -127 -21q-96 0 -172 41q-78 41 -125 111q-49 71 -73 166q-25 94 -25 198zM266 532q0 -92 19 -172q16 -76 53 -137q33 -55 84 -88q53 -33 108 -33q72 0 132 31q61 33 102 82q49 59 76 119q29 66 51 139q18 63 28.5 145t10.5 138 q0 94 -17 159q-18 76 -51 129.5t-84 85.5q-53 33 -112 33q-68 0 -129 -28q-51 -25 -100.5 -80.5t-76.5 -112.5q-33 -70 -53 -135q-22 -71 -31 -141q-10 -79 -10 -134zM438 1464q0 20 11 55q10 33 26.5 55.5t43 39t56.5 16.5q37 0 56 -23q20 -25 20 -57q0 -25 -10 -60 q-8 -29 -27 -53q-16 -23 -43 -39q-23 -14 -57 -14q-39 0 -57.5 20.5t-18.5 59.5zM815 1464q0 20 10 55q10 33 26.5 55.5t43.5 39t57 16.5q33 0 56 -23q20 -20 20 -57q0 -33 -8 -60q-8 -25 -29 -53q-16 -23 -43 -39q-23 -14 -57 -14q-37 0 -55 20q-21 25 -21 60z" />
<glyph unicode="&#xd7;" horiz-adv-x="784" d="M55 281l4 32l260 248l-190 248l4 35q4 2 10.5 3t12.5 5q4 2 13 5t13 5q14 6 26.5 10.5t22.5 6.5l177 -232l241 232q37 -12 45 -16.5t22.5 -10.5t20.5 -8l-4 -35l-260 -248l193 -248l-7 -32l-20 -11q-4 -2 -13.5 -5t-13.5 -5q-8 -2 -14 -5t-12 -5q-16 -4 -23 -6l-178 231 l-244 -231l-18 6q-6 2 -12.5 5t-12.5 5q-4 2 -11 5t-11 5z" />
<glyph unicode="&#xd8;" horiz-adv-x="1132" d="M23 -18l139 178q-41 74 -58 149q-18 84 -18 176q0 78 10 138q10 63 35 141q18 59 53 133q31 63 72 121q57 74 90 106q51 51 106.5 86t123 57.5t139.5 22.5q76 0 143 -26q61 -25 109 -72l57 72q23 14 31 16q6 2 17 7t17.5 7l17.5 5.5l17 5.5q14 6 31 8l25 -33l-142 -182 q35 -61 54 -150q18 -84 18 -174q0 -57 -14.5 -143t-34.5 -146q-20 -61 -60 -137q-29 -59 -79 -123q-41 -51 -93 -100q-55 -51 -104 -82q-47 -29 -117 -53q-59 -20 -127 -21q-78 0 -139 25q-55 23 -109 72l-53 -68q-4 -4 -28 -16q-18 -8 -37 -15q-14 -4 -39 -12l-33 -8z M266 532q0 -113 29 -204l561 723q-33 51 -82 81.5t-108 30.5q-68 0 -129 -28q-51 -25 -100.5 -80.5t-76.5 -112.5q-33 -70 -53 -135q-22 -71 -31 -141q-10 -79 -10 -134zM346 211q33 -51 82 -80q47 -29 102 -29q72 0 132 31q61 33 102 82q49 59 76 119q29 66 51 139 q18 63 28.5 145t10.5 138q0 49 -6 92q-8 57 -17 84z" />
<glyph unicode="&#xd9;" horiz-adv-x="1239" d="M166 1206l6 54h434l-8 -54q-70 -16 -98 -30q-37 -18 -39 -31l-88 -635q-6 -55 -6 -57q0 -10 -1 -28.5t-1 -27.5q0 -66 16 -125q16 -57 49 -96q31 -37 82 -59q47 -20 113 -21q65 0 116 31q57 33 95 82q43 57 65 117q27 72 35 143l92 676q3 12 -24 31q-20 14 -93 30l7 54 h385l-9 -54q-72 -16 -96 -30q-33 -18 -35 -31l-90 -633q-18 -132 -61 -233q-41 -98 -111 -170q-63 -68 -151 -105q-82 -35 -185 -35q-82 0 -151 25q-71 25 -123 74q-53 49 -80 118q-29 74 -29 162q0 59 8 115l99 682q2 12 -29 31q-22 14 -94 30zM456 1585l15 51l30 20 q2 2 39 23l41 20l33 17l303 -320q-20 -29 -24 -33q-12 -12 -27 -20z" />
<glyph unicode="&#xda;" horiz-adv-x="1239" d="M166 1206l6 54h434l-8 -54q-70 -16 -98 -30q-37 -18 -39 -31l-88 -635q-6 -55 -6 -57q0 -10 -1 -28.5t-1 -27.5q0 -66 16 -125q16 -57 49 -96q31 -37 82 -59q47 -20 113 -21q65 0 116 31q57 33 95 82q43 57 65 117q27 72 35 143l92 676q3 12 -24 31q-20 14 -93 30l7 54 h385l-9 -54q-72 -16 -96 -30q-33 -18 -35 -31l-90 -633q-18 -132 -61 -233q-41 -98 -111 -170q-63 -68 -151 -105q-82 -35 -185 -35q-82 0 -151 25q-71 25 -123 74q-53 49 -80 118q-29 74 -29 162q0 59 8 115l99 682q2 12 -29 31q-22 14 -94 30zM606 1396l381 320 q16 -12 29 -19l32 -20l16.5 -12.5t16.5 -10.5q15 -9 25 -18v-51l-461 -242q-18 10 -23 20z" />
<glyph unicode="&#xdb;" horiz-adv-x="1239" d="M166 1206l6 54h434l-8 -54q-70 -16 -98 -30q-37 -18 -39 -31l-88 -635q-6 -55 -6 -57q0 -10 -1 -28.5t-1 -27.5q0 -66 16 -125q16 -57 49 -96q31 -37 82 -59q47 -20 113 -21q65 0 116 31q57 33 95 82q43 57 65 117q27 72 35 143l92 676q3 12 -24 31q-20 14 -93 30l7 54 h385l-9 -54q-72 -16 -96 -30q-33 -18 -35 -31l-90 -633q-18 -132 -61 -233q-41 -98 -111 -170q-63 -68 -151 -105q-82 -35 -185 -35q-82 0 -151 25q-71 25 -123 74q-53 49 -80 118q-29 74 -29 162q0 59 8 115l99 682q2 12 -29 31q-22 14 -94 30zM483 1392l281 303h100 l199 -303l-14.5 -18.5t-10.5 -12.5q-4 -4 -26 -18l-222 195l-270 -195q-9 6 -18 18q-13 17 -19 31z" />
<glyph unicode="&#xdc;" horiz-adv-x="1239" d="M166 1206l6 54h434l-8 -54q-70 -16 -98 -30q-37 -18 -39 -31l-88 -635q-6 -55 -6 -57q0 -10 -1 -28.5t-1 -27.5q0 -66 16 -125q16 -57 49 -96q31 -37 82 -59q47 -20 113 -21q65 0 116 31q57 33 95 82q43 57 65 117q27 72 35 143l92 676q3 12 -24 31q-20 14 -93 30l7 54 h385l-9 -54q-72 -16 -96 -30q-33 -18 -35 -31l-90 -633q-18 -132 -61 -233q-41 -98 -111 -170q-63 -68 -151 -105q-82 -35 -185 -35q-82 0 -151 25q-71 25 -123 74q-53 49 -80 118q-29 74 -29 162q0 59 8 115l99 682q2 12 -29 31q-22 14 -94 30zM491 1464q0 20 11 55 q10 33 26.5 55.5t43 39t56.5 16.5q37 0 56 -23q20 -25 20 -57q0 -25 -10 -60q-8 -29 -27 -53q-16 -23 -43 -39q-23 -14 -57 -14q-39 0 -57.5 20.5t-18.5 59.5zM868 1464q0 20 10 55q10 33 26.5 55.5t43.5 39t57 16.5q33 0 56 -23q20 -20 20 -57q0 -33 -8 -60q-8 -25 -29 -53 q-16 -23 -43 -39q-23 -14 -57 -14q-37 0 -55 20q-21 25 -21 60z" />
<glyph unicode="&#xdd;" horiz-adv-x="1150" d="M109 1237q27 6 61 12l68 13q47 8 63 10q41 4 47 4q16 0 33 -12q25 -18 31 -31q18 -31 43 -78l45 -92q2 -6 19.5 -44t25.5 -58q8 -23 19 -48.5t22 -54.5q6 -16 32 -96q14 -43 25 -84l299 463q18 27 -4 43q-18 12 -90 22l6 54h369l-6 -54q-53 -10 -99 -26q-31 -10 -51 -39 l-387 -606l-55 -410q0 -8 4 -14q6 -8 22 -19q23 -14 43 -20q23 -8 70 -19l-8 -53h-471l8 53q35 8 72 19q20 6 49 20q20 10 26 17q10 10 11 16l57 420l-49 157q-14 47 -64 166q-37 92 -69 154q-57 109 -66 123q-2 6 -20 22q-8 8 -27 13q-31 6 -39 6q-35 0 -59 -2zM543 1396 l381 320q16 -12 29 -19l32 -20l16.5 -12.5t16.5 -10.5q15 -9 25 -18v-51l-461 -242q-18 10 -23 20z" />
<glyph unicode="&#xde;" horiz-adv-x="997" d="M0 0l8 53q57 14 98 31q35 14 39 31l142 1030q4 12 -27 31q-25 14 -92 30l6 54h459l-6 -54q-76 -14 -80 -16l-49 -16q-14 -4 -29 -15q-8 -6 -8 -14l-19 -133q66 12 140 12q90 0 163 -25q68 -23 123 -67q52 -43 80 -105q27 -59 27 -137q0 -92 -33 -166q-34 -77 -92 -135 q-57 -57 -139 -92t-174 -35q-45 0 -78 8q-43 10 -64 25l-10 84q37 -18 70 -25q23 -4 65 -4q59 0 115 23q51 20 88 61q35 37 57 96q20 53 21 121q0 66 -23 121q-20 49 -59 88q-35 35 -88 53q-52 18 -111 19q-16 0 -45 -4q-2 0 -20.5 -2t-26.5 -4l-109 -807q-4 -6 5 -15 q6 -6 22 -14q4 -2 47 -16q12 -4 74 -17l-6 -53h-461z" />
<glyph unicode="&#xdf;" horiz-adv-x="1038" d="M-156 -416q51 29 93 88q43 61 71 135q23 55 49 164q18 72 29 168l88 760q23 170 88 299q68 132 197 227q55 43 119 68q66 25 116 25q68 0 123 -25q53 -23 92 -70q37 -43 56 -94q20 -57 20 -104q0 -86 -24 -146q-20 -51 -64 -96q-35 -39 -84 -68l-84 -53q-41 -27 -63 -55 q-25 -31 -25 -76q0 -39 25 -65q18 -23 61 -54q37 -28 80 -55q49 -33 82 -61q33 -31 61 -80q25 -43 25 -105q0 -66 -27 -125q-31 -68 -76 -112q-53 -53 -116 -82q-72 -33 -154 -33q-43 0 -84 14.5t-76 36.5q-29 18 -55 49q-23 27 -22 47q0 10 12 35q12 27 29 47q18 25 34 41 q18 18 29 19q8 0 14 -12l17 -35q4 -8 12 -22.5t10 -20.5q6 -12 33 -43q23 -25 41 -35q25 -12 55 -12q68 0 113 41t45 124q0 61 -25 101q-27 43 -61 72q-37 31 -80 55q-29 16 -78 53q-39 29 -61 64q-25 37 -25 90q0 74 25 120q25 45 63 78q45 37 80 58q37 20 80 53 q35 27 61 70q25 39 25 106q0 51 -10 88q-12 41 -37 76q-20 29 -59 53q-33 20 -80 21q-57 0 -103 -37t-79.5 -98.5t-55.5 -141.5q-23 -80 -31 -162l-88 -759q-14 -121 -47 -213q-39 -106 -88 -191q-49 -82 -119 -160q-59 -63 -139 -114z" />
<glyph unicode="&#xe0;" d="M47 305q0 68 21 154q18 78 55 145.5t92 128.5q51 57 125 109q20 14 59 34.5t68 30.5q31 10 72 21q33 8 71 8q20 0 41 -6q25 -6 39 -15l37 -18l35 -20q6 4 53 30l57 29l25 -45q-25 -20 -29 -25q-12 -10 -20 -26q-8 -14 -14 -35q-6 -22 -13 -55q-18 -88 -28 -146 q-2 -16 -7.5 -45l-9.5 -50.5t-6 -39.5q-4 -29 -14 -111q-4 -33 -4 -71q0 -102 14 -144q16 -45 36.5 -45t45.5 6q37 8 65 23l15 -45q-102 -70 -148 -92q-61 -31 -92 -31q-18 0 -37 12q-16 12 -33 43q-18 35 -26 88q-10 61 -10 144q-27 -45 -66 -96q-37 -49 -80 -93 q-45 -45 -86 -71.5t-84 -26.5q-35 0 -71 18q-39 18 -72 62q-31 39 -53.5 106.5t-22.5 159.5zM215 379q0 -55 10 -111q10 -51 27 -82q20 -39 41 -53q23 -16 49 -16q20 0 51 24q33 27 66 68q51 66 71 94q37 52 68 111q0 6 4 39.5t8 52.5l17 92q8 45 14 84q4 20 7 36.5t5 29.5 q-20 16 -32 24q-31 20 -35 23q-35 16 -39 18q-23 6 -41 6q-43 0 -84 -22q-37 -20 -72 -58q-33 -35 -57 -82q-27 -49 -43.5 -94t-26.5 -96q-8 -43 -8 -88zM312 1403l35 41q4 0 12 1t20 3q14 2 47 6t47.5 6t34.5 2l135 -411q-22 -12 -36 -19q-12 -4 -33 -8z" />
<glyph unicode="&#xe1;" d="M47 305q0 68 21 154q18 78 55 145.5t92 128.5q51 57 125 109q20 14 59 34.5t68 30.5q31 10 72 21q33 8 71 8q20 0 41 -6q25 -6 39 -15l37 -18l35 -20q6 4 53 30l57 29l25 -45q-25 -20 -29 -25q-12 -10 -20 -26q-8 -14 -14 -35q-6 -22 -13 -55q-18 -88 -28 -146 q-2 -16 -7.5 -45l-9.5 -50.5t-6 -39.5q-4 -29 -14 -111q-4 -33 -4 -71q0 -102 14 -144q16 -45 36.5 -45t45.5 6q37 8 65 23l15 -45q-102 -70 -148 -92q-61 -31 -92 -31q-18 0 -37 12q-16 12 -33 43q-18 35 -26 88q-10 61 -10 144q-27 -45 -66 -96q-37 -49 -80 -93 q-45 -45 -86 -71.5t-84 -26.5q-35 0 -71 18q-39 18 -72 62q-31 39 -53.5 106.5t-22.5 159.5zM215 379q0 -55 10 -111q10 -51 27 -82q20 -39 41 -53q23 -16 49 -16q20 0 51 24q33 27 66 68q51 66 71 94q37 52 68 111q0 6 4 39.5t8 52.5l17 92q8 45 14 84q4 20 7 36.5t5 29.5 q-20 16 -32 24q-31 20 -35 23q-35 16 -39 18q-23 6 -41 6q-43 0 -84 -22q-37 -20 -72 -58q-33 -35 -57 -82q-27 -49 -43.5 -94t-26.5 -96q-8 -43 -8 -88zM499 1065l260 397l29 -8q6 -2 20.5 -5t20.5 -5q29 -8 41 -12q6 -2 15.5 -6.5t11.5 -4.5l18 -49l-362 -348 q-10 2 -27 14q-13 9 -27 27z" />
<glyph unicode="&#xe2;" d="M47 305q0 68 21 154q18 78 55 145.5t92 128.5q51 57 125 109q20 14 59 34.5t68 30.5q31 10 72 21q33 8 71 8q20 0 41 -6q25 -6 39 -15l37 -18l35 -20q6 4 53 30l57 29l25 -45q-25 -20 -29 -25q-12 -10 -20 -26q-8 -14 -14 -35q-6 -22 -13 -55q-18 -88 -28 -146 q-2 -16 -7.5 -45l-9.5 -50.5t-6 -39.5q-4 -29 -14 -111q-4 -33 -4 -71q0 -102 14 -144q16 -45 36.5 -45t45.5 6q37 8 65 23l15 -45q-102 -70 -148 -92q-61 -31 -92 -31q-18 0 -37 12q-16 12 -33 43q-18 35 -26 88q-10 61 -10 144q-27 -45 -66 -96q-37 -49 -80 -93 q-45 -45 -86 -71.5t-84 -26.5q-35 0 -71 18q-39 18 -72 62q-31 39 -53.5 106.5t-22.5 159.5zM215 379q0 -55 10 -111q10 -51 27 -82q20 -39 41 -53q23 -16 49 -16q20 0 51 24q33 27 66 68q51 66 71 94q37 52 68 111q0 6 4 39.5t8 52.5l17 92q8 45 14 84q4 20 7 36.5t5 29.5 q-20 16 -32 24q-31 20 -35 23q-35 16 -39 18q-23 6 -41 6q-43 0 -84 -22q-37 -20 -72 -58q-33 -35 -57 -82q-27 -49 -43.5 -94t-26.5 -96q-8 -43 -8 -88zM283 1073l289 375h106l189 -375q-14 -20 -25 -31q-2 -2 -28 -18l-213 252l-279 -252q-9 6 -18 18q-17 23 -21 31z" />
<glyph unicode="&#xe3;" d="M47 305q0 68 21 154q18 78 55 145.5t92 128.5q51 57 125 109q20 14 59 34.5t68 30.5q31 10 72 21q33 8 71 8q20 0 41 -6q25 -6 39 -15l37 -18l35 -20q6 4 53 30l57 29l25 -45q-25 -20 -29 -25q-12 -10 -20 -26q-8 -14 -14 -35q-6 -22 -13 -55q-18 -88 -28 -146 q-2 -16 -7.5 -45l-9.5 -50.5t-6 -39.5q-4 -29 -14 -111q-4 -33 -4 -71q0 -102 14 -144q16 -45 36.5 -45t45.5 6q37 8 65 23l15 -45q-102 -70 -148 -92q-61 -31 -92 -31q-18 0 -37 12q-16 12 -33 43q-18 35 -26 88q-10 61 -10 144q-27 -45 -66 -96q-37 -49 -80 -93 q-45 -45 -86 -71.5t-84 -26.5q-35 0 -71 18q-39 18 -72 62q-31 39 -53.5 106.5t-22.5 159.5zM215 379q0 -55 10 -111q10 -51 27 -82q20 -39 41 -53q23 -16 49 -16q20 0 51 24q33 27 66 68q51 66 71 94q37 52 68 111q0 6 4 39.5t8 52.5l17 92q8 45 14 84q4 20 7 36.5t5 29.5 q-20 16 -32 24q-31 20 -35 23q-35 16 -39 18q-23 6 -41 6q-43 0 -84 -22q-37 -20 -72 -58q-33 -35 -57 -82q-27 -49 -43.5 -94t-26.5 -96q-8 -43 -8 -88zM247 1104q18 33 50 82q23 37 61 78q37 41 70 59q39 23 77 23q37 0 68 -19q43 -27 57 -37l49 -37q23 -16 48 -16 q39 0 75 31q39 33 74 88l53 -25q-18 -33 -49 -82q-33 -51 -59 -78q-37 -37 -72 -57q-39 -23 -78 -22q-33 0 -61 16q-28 15 -55 37q-23 18 -54 37q-27 16 -55 16q-39 0 -72 -31q-31 -27 -75 -86z" />
<glyph unicode="&#xe4;" d="M47 305q0 68 21 154q18 78 55 145.5t92 128.5q51 57 125 109q20 14 59 34.5t68 30.5q31 10 72 21q33 8 71 8q20 0 41 -6q25 -6 39 -15l37 -18l35 -20q6 4 53 30l57 29l25 -45q-25 -20 -29 -25q-12 -10 -20 -26q-8 -14 -14 -35q-6 -22 -13 -55q-18 -88 -28 -146 q-2 -16 -7.5 -45l-9.5 -50.5t-6 -39.5q-4 -29 -14 -111q-4 -33 -4 -71q0 -102 14 -144q16 -45 36.5 -45t45.5 6q37 8 65 23l15 -45q-102 -70 -148 -92q-61 -31 -92 -31q-18 0 -37 12q-16 12 -33 43q-18 35 -26 88q-10 61 -10 144q-27 -45 -66 -96q-37 -49 -80 -93 q-45 -45 -86 -71.5t-84 -26.5q-35 0 -71 18q-39 18 -72 62q-31 39 -53.5 106.5t-22.5 159.5zM215 379q0 -55 10 -111q10 -51 27 -82q20 -39 41 -53q23 -16 49 -16q20 0 51 24q33 27 66 68q51 66 71 94q37 52 68 111q0 6 4 39.5t8 52.5l17 92q8 45 14 84q4 20 7 36.5t5 29.5 q-20 16 -32 24q-31 20 -35 23q-35 16 -39 18q-23 6 -41 6q-43 0 -84 -22q-37 -20 -72 -58q-33 -35 -57 -82q-27 -49 -43.5 -94t-26.5 -96q-8 -43 -8 -88zM299 1180q0 29 9 55q8 29 28 55q16 23 43 39.5t58 16.5q37 0 55 -23q20 -25 20 -57q0 -25 -10 -60q-8 -29 -27 -53 q-16 -23 -43 -39q-23 -14 -57 -14q-39 0 -57 20q-19 23 -19 60zM676 1180q0 20 10 55q10 33 26.5 55.5t43.5 39t55 16.5q35 0 58 -23q20 -20 20 -57q0 -25 -10 -60q-8 -29 -27 -53q-16 -23 -43 -39q-23 -14 -57 -14q-39 0 -57 20q-19 23 -19 60z" />
<glyph unicode="&#xe5;" d="M47 305q0 68 21 154q18 78 55 145.5t92 128.5q51 57 125 109q20 14 59 34.5t68 30.5q31 10 72 21q33 8 71 8q20 0 41 -6q25 -6 39 -15l37 -18l35 -20q6 4 53 30l57 29l25 -45q-25 -20 -29 -25q-12 -10 -20 -26q-8 -14 -14 -35q-6 -22 -13 -55q-18 -88 -28 -146 q-2 -16 -7.5 -45l-9.5 -50.5t-6 -39.5q-4 -29 -14 -111q-4 -33 -4 -71q0 -102 14 -144q16 -45 36.5 -45t45.5 6q37 8 65 23l15 -45q-102 -70 -148 -92q-61 -31 -92 -31q-18 0 -37 12q-16 12 -33 43q-18 35 -26 88q-10 61 -10 144q-27 -45 -66 -96q-37 -49 -80 -93 q-45 -45 -86 -71.5t-84 -26.5q-35 0 -71 18q-39 18 -72 62q-31 39 -53.5 106.5t-22.5 159.5zM215 379q0 -55 10 -111q10 -51 27 -82q20 -39 41 -53q23 -16 49 -16q20 0 51 24q33 27 66 68q51 66 71 94q37 52 68 111q0 6 4 39.5t8 52.5l17 92q8 45 14 84q4 20 7 36.5t5 29.5 q-20 16 -32 24q-31 20 -35 23q-35 16 -39 18q-23 6 -41 6q-43 0 -84 -22q-37 -20 -72 -58q-33 -35 -57 -82q-27 -49 -43.5 -94t-26.5 -96q-8 -43 -8 -88zM411 1155q0 49 19 94q18 46 49 86q29 39 74 64q43 25 92 24q25 0 51 -10q25 -10 41 -29q15 -18 24 -43q10 -27 11 -55 q0 -41 -19 -88q-16 -41 -49 -84q-29 -39 -74 -63q-43 -25 -92 -25q-27 0 -51 10q-27 12 -41 29q-16 20 -25 41q-10 26 -10 49zM509 1198q0 -33 17 -59q16 -25 45 -25q23 0 41 12q20 12 33 33q12 18 18 43q8 33 8 47q0 37 -14 60q-15 25 -43 24q-27 0 -45 -12 q-23 -14 -33 -31q-16 -23 -20 -43q-7 -24 -7 -49z" />
<glyph unicode="&#xe6;" horiz-adv-x="1323" d="M39 305q0 76 18 154q20 86 54 145q41 74 90 129q49 53 127 109q6 4 57 35q27 16 68 30q27 10 69 21q33 8 70 8q41 0 78 -18q45 -23 65 -37q41 29 103 55l26 -37q-10 -8 -24 -22q-12 -12 -19 -21q-10 -12 -14 -25q-6 -15 -12 -36q18 18 28 26q8 6 15.5 12.5t15.5 12.5 q29 23 55 35q47 23 62 28q45 16 67 21q35 6 64 6q43 0 80 -16q39 -18 57 -39q23 -25 35 -58q10 -25 10 -63q0 -29 -6 -59.5t-27 -63.5q-25 -39 -55 -70q-35 -35 -98 -75q-41 -27 -148 -80q-78 -39 -209 -88q6 -53 25 -97q23 -51 39 -75q18 -25 49 -46q29 -18 51 -18 q20 0 51 6q29 6 70 25q57 27 90 47q61 39 111 78l10 -11q8 -8 10 -14q4 -8 8 -14l7 -12q-83 -71 -148 -117q-70 -49 -117 -72q-57 -27 -94 -35q-47 -10 -78 -10q-29 0 -71 16q-39 14 -76 49t-66 91q-28 55 -37 135q-25 -45 -67 -100q-33 -43 -84 -95q-37 -37 -88 -69 q-41 -27 -84 -27q-35 0 -72 18q-41 20 -69.5 61.5t-51.5 106.5q-20 62 -20 160zM203 379q0 -55 10 -111q8 -43 27 -84q12 -29 39 -51q18 -16 49 -16q20 0 51 24q33 27 65 68q37 45 70 96q43 63 70 111q0 2 1 8t3 8l12 90q4 25 8 46.5t6 41.5q6 43 13 80l5 30.5t5 27.5 q-20 16 -33 24q-25 16 -37 23q-35 16 -39 18q-20 6 -41 6q-41 0 -81 -22q-43 -23 -72 -58q-33 -39 -55 -82q-18 -35 -41 -94q-16 -45 -27 -96q-8 -43 -8 -88zM741 414q127 51 191 88q76 43 108 76q39 39 47 69q10 37 11 68q0 20 -8 49q-6 20 -18.5 32.5t-27.5 18.5 q-16 6 -32 6q-12 0 -47 -14t-60 -39q-37 -37 -59 -70q-35 -49 -51 -86q-12 -27 -35 -98q-17 -49 -19 -100z" />
<glyph unicode="&#xe7;" horiz-adv-x="819" d="M59 322q0 72 15 137q16 78 44.5 139t82.5 129q47 59 125 111q10 6 61 34q16 8 74 33q27 12 76 23q35 8 73 8q43 0 80 -16q34 -15 62 -37q6 -4 24.5 -18.5l26.5 -20.5q25 -20 41 -27l-20.5 -15t-26.5 -22l-49 -37q-10 -8 -48 -28q-18 -10 -34 -10q-14 0 -29 18l-39 39 q-20 20 -45 38.5t-57 18.5q-43 0 -78 -20q-39 -23 -66 -56q-33 -39 -51 -79q-20 -43 -37 -97q-16 -55 -22 -100q-6 -52 -6 -98q0 -65 12 -117q12 -51 36.5 -88t57.5 -55q37 -20 72 -21q14 0 51 8q29 6 65 25q20 10 82 47q25 14 101 74q4 -4 8 -12.5t10 -16.5q2 -4 9.5 -11 t9.5 -12q-77 -71 -142 -116q-72 -51 -114 -72q-59 -27 -88 -33l-5.5 -16t-3.5 -14q-8 -33 -12 -48q59 -4 88 -32q31 -31 31 -80q0 -51 -33 -96q-33 -47 -82 -70q-52 -25 -117 -25q-68 0 -131 37l-2 49q49 -23 88 -24q37 -2 66 10t41 31q14 20 14 43q0 25 -20 39 q-23 16 -64 12q23 59 25 63q12 37 18 54q4 12 15 51l2 6h-9q-41 0 -79 16q-47 20 -84 60q-37 41 -66 112q-27 69 -27 175z" />
<glyph unicode="&#xe8;" horiz-adv-x="823" d="M57 303q0 70 21 152q20 84 53 143q39 72 88 129t117 113q16 14 51 34q33 18 64 31q45 16 69 23q33 8 70 8q45 0 82 -16q39 -18 57 -39q23 -25 35 -58q10 -25 10 -63q0 -27 -6 -58q-6 -35 -27 -65q-20 -35 -57 -70q-37 -37 -96 -75q-41 -27 -148 -80q-84 -41 -207 -86 q6 -49 23 -97q14 -41 39 -75q16 -25 47 -48q25 -18 53 -18q20 0 51 6q29 6 70 25q57 27 90 47q61 39 111 78l10 -11q2 -2 10 -14q4 -6 8 -14l7 -12q-94 -80 -146 -117q-72 -51 -114 -72q-57 -27 -95 -35q-47 -10 -82 -10q-37 0 -79.5 18.5t-83.5 59.5q-35 35 -66 106 q-29 68 -29 160zM231 414q127 51 191 88q70 39 106 76q39 39 47 67q10 37 11 68q0 20 -8 49q-6 20 -19 33q-16 16 -27 20q-15 6 -30 6q-18 0 -49 -12t-60 -41q-29 -31 -57 -70q-35 -49 -51 -86q-20 -43 -37 -96q-13 -41 -17 -102zM271 1403l35 41q4 0 12 1t20 3q14 2 47 6 t47.5 6t34.5 2l135 -411q-22 -12 -36 -19q-12 -4 -33 -8z" />
<glyph unicode="&#xe9;" horiz-adv-x="823" d="M57 303q0 70 21 152q20 84 53 143q39 72 88 129t117 113q16 14 51 34q33 18 64 31q45 16 69 23q33 8 70 8q45 0 82 -16q39 -18 57 -39q23 -25 35 -58q10 -25 10 -63q0 -27 -6 -58q-6 -35 -27 -65q-20 -35 -57 -70q-37 -37 -96 -75q-41 -27 -148 -80q-84 -41 -207 -86 q6 -49 23 -97q14 -41 39 -75q16 -25 47 -48q25 -18 53 -18q20 0 51 6q29 6 70 25q57 27 90 47q61 39 111 78l10 -11q2 -2 10 -14q4 -6 8 -14l7 -12q-94 -80 -146 -117q-72 -51 -114 -72q-57 -27 -95 -35q-47 -10 -82 -10q-37 0 -79.5 18.5t-83.5 59.5q-35 35 -66 106 q-29 68 -29 160zM231 414q127 51 191 88q70 39 106 76q39 39 47 67q10 37 11 68q0 20 -8 49q-6 20 -19 33q-16 16 -27 20q-15 6 -30 6q-18 0 -49 -12t-60 -41q-29 -31 -57 -70q-35 -49 -51 -86q-20 -43 -37 -96q-13 -41 -17 -102zM458 1065l260 397l29 -8q6 -2 20.5 -5 t20.5 -5q29 -8 41 -12q6 -2 15.5 -6.5t11.5 -4.5l18 -49l-362 -348q-10 2 -27 14q-13 9 -27 27z" />
<glyph unicode="&#xea;" horiz-adv-x="823" d="M57 303q0 70 21 152q20 84 53 143q39 72 88 129t117 113q16 14 51 34q33 18 64 31q45 16 69 23q33 8 70 8q45 0 82 -16q39 -18 57 -39q23 -25 35 -58q10 -25 10 -63q0 -27 -6 -58q-6 -35 -27 -65q-20 -35 -57 -70q-37 -37 -96 -75q-41 -27 -148 -80q-84 -41 -207 -86 q6 -49 23 -97q14 -41 39 -75q16 -25 47 -48q25 -18 53 -18q20 0 51 6q29 6 70 25q57 27 90 47q61 39 111 78l10 -11q2 -2 10 -14q4 -6 8 -14l7 -12q-94 -80 -146 -117q-72 -51 -114 -72q-57 -27 -95 -35q-47 -10 -82 -10q-37 0 -79.5 18.5t-83.5 59.5q-35 35 -66 106 q-29 68 -29 160zM231 414q127 51 191 88q70 39 106 76q39 39 47 67q10 37 11 68q0 20 -8 49q-6 20 -19 33q-16 16 -27 20q-15 6 -30 6q-18 0 -49 -12t-60 -41q-29 -31 -57 -70q-35 -49 -51 -86q-20 -43 -37 -96q-13 -41 -17 -102zM242 1073l289 375h106l189 -375 q-14 -20 -25 -31q-2 -2 -28 -18l-213 252l-279 -252q-9 6 -18 18q-17 23 -21 31z" />
<glyph unicode="&#xeb;" horiz-adv-x="823" d="M57 303q0 70 21 152q20 84 53 143q39 72 88 129t117 113q16 14 51 34q33 18 64 31q45 16 69 23q33 8 70 8q45 0 82 -16q39 -18 57 -39q23 -25 35 -58q10 -25 10 -63q0 -27 -6 -58q-6 -35 -27 -65q-20 -35 -57 -70q-37 -37 -96 -75q-41 -27 -148 -80q-84 -41 -207 -86 q6 -49 23 -97q14 -41 39 -75q16 -25 47 -48q25 -18 53 -18q20 0 51 6q29 6 70 25q57 27 90 47q61 39 111 78l10 -11q2 -2 10 -14q4 -6 8 -14l7 -12q-94 -80 -146 -117q-72 -51 -114 -72q-57 -27 -95 -35q-47 -10 -82 -10q-37 0 -79.5 18.5t-83.5 59.5q-35 35 -66 106 q-29 68 -29 160zM231 414q127 51 191 88q70 39 106 76q39 39 47 67q10 37 11 68q0 20 -8 49q-6 20 -19 33q-16 16 -27 20q-15 6 -30 6q-18 0 -49 -12t-60 -41q-29 -31 -57 -70q-35 -49 -51 -86q-20 -43 -37 -96q-13 -41 -17 -102zM258 1180q0 29 9 55q8 29 28 55 q16 23 43 39.5t58 16.5q37 0 55 -23q20 -25 20 -57q0 -25 -10 -60q-8 -29 -27 -53q-16 -23 -43 -39q-23 -14 -57 -14q-39 0 -57 20q-19 23 -19 60zM635 1180q0 20 10 55q10 33 26.5 55.5t43.5 39t55 16.5q35 0 58 -23q20 -20 20 -57q0 -25 -10 -60q-8 -29 -27 -53 q-16 -23 -43 -39q-23 -14 -57 -14q-39 0 -57 20q-19 23 -19 60z" />
<glyph unicode="&#xec;" horiz-adv-x="524" d="M66 829q18 8 39.5 18.5t46.5 20.5l86 33l73 25q35 10 47 10q29 0 41.5 -18.5t12.5 -65.5q0 -10 -9 -84q-6 -55 -18 -123l-25 -139l-24 -141q-12 -68 -19 -123q-8 -74 -8 -84q0 -25 8 -45q6 -14 23 -15q33 0 57 8q59 20 70 25l16 -45q-125 -74 -166 -92q-74 -35 -118 -35 q-34 0 -56 31q-23 33 -22 86q0 10 8 84q2 20 9 61t9 58q6 43 23 137q18 104 23 135q2 20 9 59t9 56q8 66 8 73q0 20 -4 37q-4 18 -6 21q-4 6 -14 8q-6 2 -17 2q-4 0 -24.5 -4t-32.5 -8t-41 -13zM119 1403l35 41q4 0 12 1t20 3q14 2 47 6t47.5 6t34.5 2l135 -411 q-22 -12 -36 -19q-12 -4 -33 -8z" />
<glyph unicode="&#xed;" horiz-adv-x="524" d="M66 829q18 8 39.5 18.5t46.5 20.5l86 33l73 25q35 10 47 10q29 0 41.5 -18.5t12.5 -65.5q0 -10 -9 -84q-6 -55 -18 -123l-25 -139l-24 -141q-12 -68 -19 -123q-8 -74 -8 -84q0 -25 8 -45q6 -14 23 -15q33 0 57 8q59 20 70 25l16 -45q-125 -74 -166 -92q-74 -35 -118 -35 q-34 0 -56 31q-23 33 -22 86q0 10 8 84q2 20 9 61t9 58q6 43 23 137q18 104 23 135q2 20 9 59t9 56q8 66 8 73q0 20 -4 37q-4 18 -6 21q-4 6 -14 8q-6 2 -17 2q-4 0 -24.5 -4t-32.5 -8t-41 -13zM307 1065l260 397l29 -8q6 -2 20.5 -5t20.5 -5q29 -8 41 -12q6 -2 15.5 -6.5 t11.5 -4.5l18 -49l-362 -348q-10 2 -27 14q-13 9 -27 27z" />
<glyph unicode="&#xee;" horiz-adv-x="524" d="M66 829q18 8 39.5 18.5t46.5 20.5l86 33l73 25q35 10 47 10q29 0 41.5 -18.5t12.5 -65.5q0 -10 -9 -84q-6 -55 -18 -123l-25 -139l-24 -141q-12 -68 -19 -123q-8 -74 -8 -84q0 -25 8 -45q6 -14 23 -15q33 0 57 8q59 20 70 25l16 -45q-125 -74 -166 -92q-74 -35 -118 -35 q-34 0 -56 31q-23 33 -22 86q0 10 8 84q2 20 9 61t9 58q6 43 23 137q18 104 23 135q2 20 9 59t9 56q8 66 8 73q0 20 -4 37q-4 18 -6 21q-4 6 -14 8q-6 2 -17 2q-4 0 -24.5 -4t-32.5 -8t-41 -13zM90 1073l289 375h106l189 -375q-14 -20 -25 -31q-2 -2 -28 -18l-213 252 l-279 -252q-9 6 -18 18q-17 23 -21 31z" />
<glyph unicode="&#xef;" horiz-adv-x="524" d="M66 829q18 8 39.5 18.5t46.5 20.5l86 33l73 25q35 10 47 10q29 0 41.5 -18.5t12.5 -65.5q0 -10 -9 -84q-6 -55 -18 -123l-25 -139l-24 -141q-12 -68 -19 -123q-8 -74 -8 -84q0 -25 8 -45q6 -14 23 -15q33 0 57 8q59 20 70 25l16 -45q-125 -74 -166 -92q-74 -35 -118 -35 q-34 0 -56 31q-23 33 -22 86q0 10 8 84q2 20 9 61t9 58q6 43 23 137q18 104 23 135q2 20 9 59t9 56q8 66 8 73q0 20 -4 37q-4 18 -6 21q-4 6 -14 8q-6 2 -17 2q-4 0 -24.5 -4t-32.5 -8t-41 -13zM106 1180q0 29 9 55q8 29 28 55q16 23 43 39.5t58 16.5q37 0 55 -23 q20 -25 20 -57q0 -25 -10 -60q-8 -29 -27 -53q-16 -23 -43 -39q-23 -14 -57 -14q-39 0 -57 20q-19 23 -19 60zM483 1180q0 20 10 55q10 33 26.5 55.5t43.5 39t55 16.5q35 0 58 -23q20 -20 20 -57q0 -25 -10 -60q-8 -29 -27 -53q-16 -23 -43 -39q-23 -14 -57 -14 q-39 0 -57 20q-19 23 -19 60z" />
<glyph unicode="&#xf0;" horiz-adv-x="909" d="M47 328q0 78 19 155q20 84 47 144q29 66 73 125q47 63 93 98q57 43 110 63q61 23 121 23q25 0 51 -10q29 -10 51 -25q16 -10 45 -39q23 -23 41 -47q-14 82 -47 166q-31 77 -80 141l-213 -98q-4 0 -13 1t-13 3q-8 2 -21 6l-18 6l-25 9l-4 36l242 111q-20 20 -45 39 q-23 16 -51 27q-27 8 -60 12q-35 4 -69 -2v53l215 84q41 -31 86 -72q27 -25 71 -73l199 90l33 -8q4 0 10 -1.5t10 -3.5q12 -4 17 -6q14 -8 18 -8l2 -37l-227 -104q80 -115 114 -236q35 -123 35 -243q0 -94 -20 -201q-18 -94 -53 -180t-80 -152q-41 -59 -103 -115 q-55 -49 -116 -73q-66 -27 -127 -27q-74 0 -136 29q-63 31 -100 75q-40 49 -61 117q-21 64 -21 148zM217 399q0 -66 16 -127q16 -59 43 -102q31 -47 62 -70q35 -25 72 -24q49 0 84 20q37 22 67 56q31 35 53 81q14 31 39 101q14 37 29 110q8 37 16 115q-9 58 -30 105 q-20 43 -56 81q-31 33 -69 54q-37 18 -74 18q-47 0 -80 -18q-31 -16 -61 -51q-28 -31 -49 -74q-8 -16 -33 -90q-14 -41 -21 -92q-8 -62 -8 -93z" />
<glyph unicode="&#xf1;" horiz-adv-x="1034" d="M43 831q63 29 88 37l88 33q33 12 76 25q35 10 45 10q8 0 20 -4q8 -2 13 -17q6 -25 6 -34q0 -6 1 -24.5t1 -33.5v-28q0 -4 -1 -16.5t-1 -18.5q0 -12 -4 -37q-2 -12 -2 -31q61 70 108 111q53 45 107 76q39 23 102 43q45 14 94 14q33 0 56 -8q25 -10 41 -29q18 -23 26 -51 q8 -31 8 -80q0 -34 -6 -86l-16 -111q-10 -57 -23 -118q-6 -33 -11 -65t-9 -54q-2 -14 -9 -50t-10 -53q-6 -46 -6 -73q0 -33 11 -47q8 -12 26 -13q27 0 51 8q45 16 68 25l20 -45q-72 -43 -88 -51l-79 -39q-35 -16 -66 -27q-35 -10 -51 -10q-34 0 -55 31q-23 33 -23 86 q0 2 8 63q12 88 15 105l22 127q6 35 21 129q2 8 8 49t8 59q6 49 6 72q0 72 -14 98q-16 29 -54 29q-8 0 -43 -14q-23 -10 -65 -41q-37 -29 -78 -72q-47 -51 -76 -100q-27 -47 -45 -115q-12 -47 -35 -164q-4 -18 -7 -46t-5 -36q-4 -23 -8 -67q-2 -20 -2 -58v-55l-37 -19 q-12 -4 -24.5 -10l-24.5 -12q-8 -4 -17.5 -7t-15.5 -6t-16 -7.5t-23 -11.5l-12 -7l-37 33q18 84 29 141l24 152l23 147q2 16 9 63.5t9 69.5q2 18 6.5 54l6.5 53q4 61 4 69q0 29 -2 37q-4 16 -7 21q-2 2 -12 8q-4 2 -16 2q-2 0 -27 -4q-20 -4 -35 -8q-8 -2 -19 -6.5t-24 -8.5 zM282 1104q18 33 50 82q23 37 61 78q37 41 70 59q39 23 77 23q37 0 68 -19q43 -27 57 -37l49 -37q23 -16 48 -16q39 0 75 31q39 33 74 88l53 -25q-18 -33 -49 -82q-33 -51 -59 -78q-37 -37 -72 -57q-39 -23 -78 -22q-33 0 -61 16q-28 15 -55 37q-23 18 -54 37q-27 16 -55 16 q-39 0 -72 -31q-31 -27 -75 -86z" />
<glyph unicode="&#xf2;" horiz-adv-x="878" d="M47 344q0 61 14 139q12 72 39 129q27 59 74 119q39 47 113 109q52 40 116 67q68 29 127 29q74 0 136 -29q55 -27 94 -78q33 -43 53 -118q18 -68 18 -152q0 -63 -16 -135q-16 -74 -45 -133q-31 -65 -74 -123t-98 -105q-25 -20 -57 -40q-20 -12 -62 -33q-16 -8 -63 -23 q-27 -8 -62 -8q-74 0 -129 28.5t-96 82.5q-40 52 -61 123q-21 67 -21 151zM221 406q0 -63 17 -125q16 -63 43 -105q31 -47 63 -70q41 -27 80 -26.5t76 21t59 51.5q31 43 45 75q18 45 31 88q12 46 18 93q4 31 4 88q0 152 -53 235q-51 80 -141 80q-45 0 -82 -18 q-35 -16 -62 -48q-25 -27 -45 -71q-18 -40 -30 -86q-8 -31 -17 -92q-6 -45 -6 -90zM264 1403l35 41q4 0 12 1t20 3q14 2 47 6t47.5 6t34.5 2l135 -411q-22 -12 -36 -19q-12 -4 -33 -8z" />
<glyph unicode="&#xf3;" horiz-adv-x="878" d="M47 344q0 61 14 139q12 72 39 129q27 59 74 119q39 47 113 109q52 40 116 67q68 29 127 29q74 0 136 -29q55 -27 94 -78q33 -43 53 -118q18 -68 18 -152q0 -63 -16 -135q-16 -74 -45 -133q-31 -65 -74 -123t-98 -105q-25 -20 -57 -40q-20 -12 -62 -33q-16 -8 -63 -23 q-27 -8 -62 -8q-74 0 -129 28.5t-96 82.5q-40 52 -61 123q-21 67 -21 151zM221 406q0 -63 17 -125q16 -63 43 -105q31 -47 63 -70q41 -27 80 -26.5t76 21t59 51.5q31 43 45 75q18 45 31 88q12 46 18 93q4 31 4 88q0 152 -53 235q-51 80 -141 80q-45 0 -82 -18 q-35 -16 -62 -48q-25 -27 -45 -71q-18 -40 -30 -86q-8 -31 -17 -92q-6 -45 -6 -90zM452 1065l260 397l29 -8q6 -2 20.5 -5t20.5 -5q29 -8 41 -12q6 -2 15.5 -6.5t11.5 -4.5l18 -49l-362 -348q-10 2 -27 14q-13 9 -27 27z" />
<glyph unicode="&#xf4;" horiz-adv-x="878" d="M47 344q0 61 14 139q12 72 39 129q27 59 74 119q39 47 113 109q52 40 116 67q68 29 127 29q74 0 136 -29q55 -27 94 -78q33 -43 53 -118q18 -68 18 -152q0 -63 -16 -135q-16 -74 -45 -133q-31 -65 -74 -123t-98 -105q-25 -20 -57 -40q-20 -12 -62 -33q-16 -8 -63 -23 q-27 -8 -62 -8q-74 0 -129 28.5t-96 82.5q-40 52 -61 123q-21 67 -21 151zM221 406q0 -63 17 -125q16 -63 43 -105q31 -47 63 -70q41 -27 80 -26.5t76 21t59 51.5q31 43 45 75q18 45 31 88q12 46 18 93q4 31 4 88q0 152 -53 235q-51 80 -141 80q-45 0 -82 -18 q-35 -16 -62 -48q-25 -27 -45 -71q-18 -40 -30 -86q-8 -31 -17 -92q-6 -45 -6 -90zM235 1073l289 375h106l189 -375q-14 -20 -25 -31q-2 -2 -28 -18l-213 252l-279 -252q-9 6 -18 18q-17 23 -21 31z" />
<glyph unicode="&#xf5;" horiz-adv-x="878" d="M47 344q0 61 14 139q12 72 39 129q27 59 74 119q39 47 113 109q52 40 116 67q68 29 127 29q74 0 136 -29q55 -27 94 -78q33 -43 53 -118q18 -68 18 -152q0 -63 -16 -135q-16 -74 -45 -133q-31 -65 -74 -123t-98 -105q-25 -20 -57 -40q-20 -12 -62 -33q-16 -8 -63 -23 q-27 -8 -62 -8q-74 0 -129 28.5t-96 82.5q-40 52 -61 123q-21 67 -21 151zM221 406q0 -63 17 -125q16 -63 43 -105q31 -47 63 -70q41 -27 80 -26.5t76 21t59 51.5q31 43 45 75q18 45 31 88q12 46 18 93q4 31 4 88q0 152 -53 235q-51 80 -141 80q-45 0 -82 -18 q-35 -16 -62 -48q-25 -27 -45 -71q-18 -40 -30 -86q-8 -31 -17 -92q-6 -45 -6 -90zM200 1104q18 33 50 82q23 37 61 78q37 41 70 59q39 23 77 23q37 0 68 -19q43 -27 57 -37l49 -37q23 -16 48 -16q39 0 75 31q39 33 74 88l53 -25q-18 -33 -49 -82q-33 -51 -59 -78 q-37 -37 -72 -57q-39 -23 -78 -22q-33 0 -61 16q-28 15 -55 37q-23 18 -54 37q-27 16 -55 16q-39 0 -72 -31q-31 -27 -75 -86z" />
<glyph unicode="&#xf6;" horiz-adv-x="878" d="M47 344q0 61 14 139q12 72 39 129q27 59 74 119q39 47 113 109q52 40 116 67q68 29 127 29q74 0 136 -29q55 -27 94 -78q33 -43 53 -118q18 -68 18 -152q0 -63 -16 -135q-16 -74 -45 -133q-31 -65 -74 -123t-98 -105q-25 -20 -57 -40q-20 -12 -62 -33q-16 -8 -63 -23 q-27 -8 -62 -8q-74 0 -129 28.5t-96 82.5q-40 52 -61 123q-21 67 -21 151zM221 406q0 -63 17 -125q16 -63 43 -105q31 -47 63 -70q41 -27 80 -26.5t76 21t59 51.5q31 43 45 75q18 45 31 88q12 46 18 93q4 31 4 88q0 152 -53 235q-51 80 -141 80q-45 0 -82 -18 q-35 -16 -62 -48q-25 -27 -45 -71q-18 -40 -30 -86q-8 -31 -17 -92q-6 -45 -6 -90zM252 1180q0 29 9 55q8 29 28 55q16 23 43 39.5t58 16.5q37 0 55 -23q20 -25 20 -57q0 -25 -10 -60q-8 -29 -27 -53q-16 -23 -43 -39q-23 -14 -57 -14q-39 0 -57 20q-19 23 -19 60zM629 1180 q0 20 10 55q10 33 26.5 55.5t43.5 39t55 16.5q35 0 58 -23q20 -20 20 -57q0 -25 -10 -60q-8 -29 -27 -53q-16 -23 -43 -39q-23 -14 -57 -14q-39 0 -57 20q-19 23 -19 60z" />
<glyph unicode="&#xf7;" horiz-adv-x="784" d="M66 526q2 4 3 11.5t5 13.5l12 24l8 15.5l6 11.5q6 12 11 23h600l20 -27q-2 -12 -8 -23q-4 -8 -12 -28q-4 -8 -8.5 -15.5t-6.5 -11.5l-10 -20h-600zM283 299q2 18 14 47q9 22 25 37q16 16 32 25q20 10 37 10q68 0 55 -84q-2 -16 -14 -45q-10 -25 -24 -39q-20 -20 -33 -27 q-20 -10 -37 -10q-35 0 -47 23q-14 24 -8 63zM352 793q2 23 13 45q8 23 26 39q18 18 31 24q20 10 37 10q68 0 55 -84q-2 -16 -14 -45q-10 -25 -25 -39q-20 -20 -33 -26q-16 -8 -36 -8q-35 0 -48 20q-12 23 -6 64z" />
<glyph unicode="&#xf8;" horiz-adv-x="878" d="M-14 -29l114 142q-29 57 -39 106q-14 68 -14 125q0 61 14 139q12 72 39 129q27 59 74 119q39 47 113 109q52 40 116 67q68 29 127.5 29t108.5 -16q47 -16 82 -48l16 21l31 16q8 6 17.5 10.5l17.5 8.5q12 6 33 18q15 9 30 12l27 -34l-111 -133q49 -94 49 -232 q0 -63 -16 -135q-16 -74 -45 -133q-31 -65 -74 -123t-98 -105q-25 -20 -57 -40q-20 -12 -62 -33q-16 -8 -63 -23q-27 -8 -62 -8q-57 0 -106 18q-43 16 -86 56l-23 -27q-2 -2 -6 -5l-9 -7t-11 -6q-6 -4 -18.5 -10.5t-18.5 -10.5t-18.5 -8t-18.5 -8q-18 -9 -31 -12zM221 406 q0 -25 4 -66q4 -33 13 -59l366 448q-51 82 -141 82q-45 0 -82 -18q-35 -16 -62 -48q-25 -27 -45 -71q-18 -40 -30 -86q-8 -31 -17 -92q-6 -45 -6 -90zM281 176q27 -45 63 -70q41 -27 80 -26.5t76 21t59 51.5q31 43 45 75q18 45 31 88q12 46 18 93q4 31 4 88q0 47 -2 67 q-2 25 -10 60z" />
<glyph unicode="&#xf9;" horiz-adv-x="1046" d="M35 829q10 4 39.5 18.5t48.5 20.5l88 33l74 25q37 10 47 10q29 0 39 -18q10 -20 10 -66q0 -29 -6 -76q-2 -20 -17 -102q-8 -55 -18 -114.5t-18 -115.5q-14 -82 -17 -102q-6 -47 -6 -78q0 -76 20 -121q18 -39 52 -39q18 0 49 18.5t69 57.5q45 45 86 103q57 80 97 153 q2 14 7 42t7 42q10 51 14 82q8 53 11 76q4 45 4 61q0 29 -2 37q-4 16 -8 21q-6 6 -10.5 8t-16.5 2q-4 0 -25 -4q-16 -4 -28 -8l-37 -13l-17 47l40 18.5t46 20.5l86 33q43 16 70 25q35 10 47 10q28 0 37 -18q8 -16 8 -66q0 -28 -6 -74q-10 -78 -14 -100l-19 -111l-18 -112 q-4 -20 -14 -103q-6 -46 -7 -80q0 -92 12.5 -133t39.5 -41q18 0 51 8q31 8 61 21l15 -45q-78 -53 -143.5 -88t-104.5 -35q-23 0 -41 16q-20 16 -34.5 53.5t-25.5 96.5q-5 34 -5 84q0 24 1 57q-45 -76 -84 -123q-55 -68 -94 -98q-57 -47 -98 -63q-55 -23 -103 -23 q-23 0 -51 16q-27 14 -51 45q-23 29 -39 78t-16 107q0 31 6 74q2 8 5 41.5t7 54.5q4 23 9.5 49.5t9.5 56.5l16 103q2 14 14 90q4 27 4 65q0 29 -2 37q-4 16 -8 21q-2 2 -14 8q-4 2 -17 2q-4 0 -24 -4q-25 -4 -35 -8q-12 -4 -41 -13zM344 1403l35 41q4 0 12 1t20 3q14 2 47 6 t47.5 6t34.5 2l135 -411q-22 -12 -36 -19q-12 -4 -33 -8z" />
<glyph unicode="&#xfa;" horiz-adv-x="1046" d="M35 829q10 4 39.5 18.5t48.5 20.5l88 33l74 25q37 10 47 10q29 0 39 -18q10 -20 10 -66q0 -29 -6 -76q-2 -20 -17 -102q-8 -55 -18 -114.5t-18 -115.5q-14 -82 -17 -102q-6 -47 -6 -78q0 -76 20 -121q18 -39 52 -39q18 0 49 18.5t69 57.5q45 45 86 103q57 80 97 153 q2 14 7 42t7 42q10 51 14 82q8 53 11 76q4 45 4 61q0 29 -2 37q-4 16 -8 21q-6 6 -10.5 8t-16.5 2q-4 0 -25 -4q-16 -4 -28 -8l-37 -13l-17 47l40 18.5t46 20.5l86 33q43 16 70 25q35 10 47 10q28 0 37 -18q8 -16 8 -66q0 -28 -6 -74q-10 -78 -14 -100l-19 -111l-18 -112 q-4 -20 -14 -103q-6 -46 -7 -80q0 -92 12.5 -133t39.5 -41q18 0 51 8q31 8 61 21l15 -45q-78 -53 -143.5 -88t-104.5 -35q-23 0 -41 16q-20 16 -34.5 53.5t-25.5 96.5q-5 34 -5 84q0 24 1 57q-45 -76 -84 -123q-55 -68 -94 -98q-57 -47 -98 -63q-55 -23 -103 -23 q-23 0 -51 16q-27 14 -51 45q-23 29 -39 78t-16 107q0 31 6 74q2 8 5 41.5t7 54.5q4 23 9.5 49.5t9.5 56.5l16 103q2 14 14 90q4 27 4 65q0 29 -2 37q-4 16 -8 21q-2 2 -14 8q-4 2 -17 2q-4 0 -24 -4q-25 -4 -35 -8q-12 -4 -41 -13zM532 1065l260 397l29 -8q6 -2 20.5 -5 t20.5 -5q29 -8 41 -12q6 -2 15.5 -6.5t11.5 -4.5l18 -49l-362 -348q-10 2 -27 14q-13 9 -27 27z" />
<glyph unicode="&#xfb;" horiz-adv-x="1046" d="M35 829q10 4 39.5 18.5t48.5 20.5l88 33l74 25q37 10 47 10q29 0 39 -18q10 -20 10 -66q0 -29 -6 -76q-2 -20 -17 -102q-8 -55 -18 -114.5t-18 -115.5q-14 -82 -17 -102q-6 -47 -6 -78q0 -76 20 -121q18 -39 52 -39q18 0 49 18.5t69 57.5q45 45 86 103q57 80 97 153 q2 14 7 42t7 42q10 51 14 82q8 53 11 76q4 45 4 61q0 29 -2 37q-4 16 -8 21q-6 6 -10.5 8t-16.5 2q-4 0 -25 -4q-16 -4 -28 -8l-37 -13l-17 47l40 18.5t46 20.5l86 33q43 16 70 25q35 10 47 10q28 0 37 -18q8 -16 8 -66q0 -28 -6 -74q-10 -78 -14 -100l-19 -111l-18 -112 q-4 -20 -14 -103q-6 -46 -7 -80q0 -92 12.5 -133t39.5 -41q18 0 51 8q31 8 61 21l15 -45q-78 -53 -143.5 -88t-104.5 -35q-23 0 -41 16q-20 16 -34.5 53.5t-25.5 96.5q-5 34 -5 84q0 24 1 57q-45 -76 -84 -123q-55 -68 -94 -98q-57 -47 -98 -63q-55 -23 -103 -23 q-23 0 -51 16q-27 14 -51 45q-23 29 -39 78t-16 107q0 31 6 74q2 8 5 41.5t7 54.5q4 23 9.5 49.5t9.5 56.5l16 103q2 14 14 90q4 27 4 65q0 29 -2 37q-4 16 -8 21q-2 2 -14 8q-4 2 -17 2q-4 0 -24 -4q-25 -4 -35 -8q-12 -4 -41 -13zM315 1073l289 375h106l189 -375 q-14 -20 -25 -31q-2 -2 -28 -18l-213 252l-279 -252q-9 6 -18 18q-17 23 -21 31z" />
<glyph unicode="&#xfc;" horiz-adv-x="1046" d="M35 829q10 4 39.5 18.5t48.5 20.5l88 33l74 25q37 10 47 10q29 0 39 -18q10 -20 10 -66q0 -29 -6 -76q-2 -20 -17 -102q-8 -55 -18 -114.5t-18 -115.5q-14 -82 -17 -102q-6 -47 -6 -78q0 -76 20 -121q18 -39 52 -39q18 0 49 18.5t69 57.5q45 45 86 103q57 80 97 153 q2 14 7 42t7 42q10 51 14 82q8 53 11 76q4 45 4 61q0 29 -2 37q-4 16 -8 21q-6 6 -10.5 8t-16.5 2q-4 0 -25 -4q-16 -4 -28 -8l-37 -13l-17 47l40 18.5t46 20.5l86 33q43 16 70 25q35 10 47 10q28 0 37 -18q8 -16 8 -66q0 -28 -6 -74q-10 -78 -14 -100l-19 -111l-18 -112 q-4 -20 -14 -103q-6 -46 -7 -80q0 -92 12.5 -133t39.5 -41q18 0 51 8q31 8 61 21l15 -45q-78 -53 -143.5 -88t-104.5 -35q-23 0 -41 16q-20 16 -34.5 53.5t-25.5 96.5q-5 34 -5 84q0 24 1 57q-45 -76 -84 -123q-55 -68 -94 -98q-57 -47 -98 -63q-55 -23 -103 -23 q-23 0 -51 16q-27 14 -51 45q-23 29 -39 78t-16 107q0 31 6 74q2 8 5 41.5t7 54.5q4 23 9.5 49.5t9.5 56.5l16 103q2 14 14 90q4 27 4 65q0 29 -2 37q-4 16 -8 21q-2 2 -14 8q-4 2 -17 2q-4 0 -24 -4q-25 -4 -35 -8q-12 -4 -41 -13zM331 1180q0 29 9 55q8 29 28 55 q16 23 43 39.5t58 16.5q37 0 55 -23q20 -25 20 -57q0 -25 -10 -60q-8 -29 -27 -53q-16 -23 -43 -39q-23 -14 -57 -14q-39 0 -57 20q-19 23 -19 60zM708 1180q0 20 10 55q10 33 26.5 55.5t43.5 39t55 16.5q35 0 58 -23q20 -20 20 -57q0 -25 -10 -60q-8 -29 -27 -53 q-16 -23 -43 -39q-23 -14 -57 -14q-39 0 -57 20q-19 23 -19 60z" />
<glyph unicode="&#xfd;" d="M-186 -436q0 12 12 37q16 33 29 49l36 47q20 25 31 29q45 -35 84 -48q31 -10 74 -10q72 0 143 72q78 78 152 205q-4 31 -27 131q-4 16 -14 68.5t-17 80.5l-19 76l-19 76q-16 68 -37 143q-20 72 -37 121q-23 63 -33 84q-18 45 -39 66q-16 16 -33 16q-6 0 -26.5 -4 t-30.5 -8q-12 -4 -41 -13l-14 47l84 39l36.5 17.5l38.5 17.5q34 15 62 25q25 8 41 8q29 0 47 -29q12 -16 41 -98q27 -74 41 -123q22 -71 43 -154l43 -170l41 -176q16 31 30.5 63l28.5 60q31 61 58 121l51 115q10 20 23.5 54l17.5 44q14 35 26 78q10 37 11 49q0 49 -54 53 q-14 2 -36 -4q-27 -8 -52 -18l-20 47q72 43 137 65q68 23 104 23q23 0 33 -2q18 -4 27 -10q12 -9 18 -25q6 -14 6 -39q0 -39 -20 -94q-27 -74 -64 -152l-110 -225l-160 -307q-82 -156 -133 -238q-70 -111 -137 -184q-70 -74 -148 -119q-74 -41 -161 -41q-33 0 -64 6 q-29 6 -53.5 16.5t-36.5 20.5q-14 13 -14 21zM514 1065l260 397l29 -8q6 -2 20.5 -5t20.5 -5q29 -8 41 -12q6 -2 15.5 -6.5t11.5 -4.5l18 -49l-362 -348q-10 2 -27 14q-13 9 -27 27z" />
<glyph unicode="&#xfe;" horiz-adv-x="985" d="M-8 -469l37 207l20 122.5l21 127.5l45 272q25 141 45 279l41 264l35 231l22 180q8 68 8 111q0 20 -4 37q-2 10 -12 20q-4 4 -17 9q-6 2 -20 2q-4 0 -25 -4q-14 -2 -32 -11l-39 -12l-17 49l90 37q61 25 91 35q39 14 77 24q31 8 50 9q33 0 41 -21q10 -25 10 -72l-8 -81 q-4 -47 -19 -154q-10 -84 -31 -223q-16 -117 -43 -285q68 94 111 135q55 53 96 76q47 27 80 33q49 8 68 8q41 0 75 -21q37 -23 64 -59q29 -41 43 -96q16 -61 16 -133q0 -94 -28 -215q-25 -106 -97 -232q-16 -29 -53 -78q-33 -43 -67 -71q-37 -31 -78 -51.5t-88 -20.5 q-27 0 -60 16q-25 12 -57 45q-39 39 -57 64q-41 55 -56 78l-26 -156q-23 -125 -29 -180l-14 -129q-2 -35 -2 -86q0 -29 6 -45q-2 0 -39 -15q-8 -2 -22.5 -6t-28.5 -10l-27.5 -11t-24.5 -9q-33 -12 -36 -15zM295 299q20 -35 41 -61q33 -39 59 -62q39 -31 70 -47 q41 -20 72 -20q49 0 88 34.5t59 85.5q20 39 29 78q6 27 14 80q6 39 6 76q0 12 1 34.5t1 32.5q0 59 -10 115q-10 49 -29 82q-20 35 -39 47q-23 16 -41 17q-25 0 -59 -21q-31 -18 -76 -59q-40 -37 -80 -93q-37 -51 -73 -124l-17 -97q-4 -16 -8 -49t-8 -49z" />
<glyph unicode="&#xff;" d="M-186 -436q0 12 12 37q16 33 29 49l36 47q20 25 31 29q45 -35 84 -48q31 -10 74 -10q72 0 143 72q78 78 152 205q-4 31 -27 131q-4 16 -14 68.5t-17 80.5l-19 76l-19 76q-16 68 -37 143q-20 72 -37 121q-23 63 -33 84q-18 45 -39 66q-16 16 -33 16q-6 0 -26.5 -4 t-30.5 -8q-12 -4 -41 -13l-14 47l84 39l36.5 17.5l38.5 17.5q34 15 62 25q25 8 41 8q29 0 47 -29q12 -16 41 -98q27 -74 41 -123q22 -71 43 -154l43 -170l41 -176q16 31 30.5 63l28.5 60q31 61 58 121l51 115q10 20 23.5 54l17.5 44q14 35 26 78q10 37 11 49q0 49 -54 53 q-14 2 -36 -4q-27 -8 -52 -18l-20 47q72 43 137 65q68 23 104 23q23 0 33 -2q18 -4 27 -10q12 -9 18 -25q6 -14 6 -39q0 -39 -20 -94q-27 -74 -64 -152l-110 -225l-160 -307q-82 -156 -133 -238q-70 -111 -137 -184q-70 -74 -148 -119q-74 -41 -161 -41q-33 0 -64 6 q-29 6 -53.5 16.5t-36.5 20.5q-14 13 -14 21zM313 1180q0 29 9 55q8 29 28 55q16 23 43 39.5t58 16.5q37 0 55 -23q20 -25 20 -57q0 -25 -10 -60q-8 -29 -27 -53q-16 -23 -43 -39q-23 -14 -57 -14q-39 0 -57 20q-19 23 -19 60zM690 1180q0 20 10 55q10 33 26.5 55.5t43.5 39 t55 16.5q35 0 58 -23q20 -20 20 -57q0 -25 -10 -60q-8 -29 -27 -53q-16 -23 -43 -39q-23 -14 -57 -14q-39 0 -57 20q-19 23 -19 60z" />
<glyph unicode="&#x100;" horiz-adv-x="1161" d="M-41 0l8 53q61 12 101 25q37 12 51 43l479 1100l39 28q6 4 45 27q4 2 13.5 8t16.5 10t13 6q37 14 39 17l219 -1196q4 -18 8 -25q6 -9 19 -18q10 -8 30 -15q23 -8 52 -10l-7 -53h-409l6 53q72 6 100 21q31 16 25 47l-55 317h-381l-138 -317q-12 -31 17 -43q33 -12 104 -25 l-6 -53h-389zM416 541h315l-92 520zM401 1470q2 4 5.5 12t5.5 13q4 10 16 30l14 29q2 8 15 25h600l20 -27q0 -2 -10 -27q-8 -14 -16 -30l-17 -29q-4 -4 -7 -12.5t-5 -10.5h-600z" />
<glyph unicode="&#x101;" d="M47 305q0 68 21 154q18 78 55 145.5t92 128.5q51 57 125 109q20 14 59 34.5t68 30.5q31 10 72 21q33 8 71 8q20 0 41 -6q25 -6 39 -15l37 -18l35 -20q6 4 53 30l57 29l25 -45q-25 -20 -29 -25q-12 -10 -20 -26q-8 -14 -14 -35q-6 -22 -13 -55q-18 -88 -28 -146 q-2 -16 -7.5 -45l-9.5 -50.5t-6 -39.5q-4 -29 -14 -111q-4 -33 -4 -71q0 -102 14 -144q16 -45 36.5 -45t45.5 6q37 8 65 23l15 -45q-102 -70 -148 -92q-61 -31 -92 -31q-18 0 -37 12q-16 12 -33 43q-18 35 -26 88q-10 61 -10 144q-27 -45 -66 -96q-37 -49 -80 -93 q-45 -45 -86 -71.5t-84 -26.5q-35 0 -71 18q-39 18 -72 62q-31 39 -53.5 106.5t-22.5 159.5zM215 379q0 -55 10 -111q10 -51 27 -82q20 -39 41 -53q23 -16 49 -16q20 0 51 24q33 27 66 68q51 66 71 94q37 52 68 111q0 6 4 39.5t8 52.5l17 92q8 45 14 84q4 20 7 36.5t5 29.5 q-20 16 -32 24q-31 20 -35 23q-35 16 -39 18q-23 6 -41 6q-43 0 -84 -22q-37 -20 -72 -58q-33 -35 -57 -82q-27 -49 -43.5 -94t-26.5 -96q-8 -43 -8 -88zM267 1184q2 4 5 12t5 12q8 20 14 31l17 29q6 15 12 24h600l20 -26q-4 -16 -10 -27l-14 -31l-17 -28l-14 -23h-600z" />
<glyph unicode="&#x102;" horiz-adv-x="1161" d="M-41 0l8 53q61 12 101 25q37 12 51 43l479 1100l39 28q6 4 45 27q4 2 13.5 8t16.5 10t13 6q37 14 39 17l219 -1196q4 -18 8 -25q6 -9 19 -18q10 -8 30 -15q23 -8 52 -10l-7 -53h-409l6 53q72 6 100 21q31 16 25 47l-55 317h-381l-138 -317q-12 -31 17 -43q33 -12 104 -25 l-6 -53h-389zM416 541h315l-92 520zM449 1654q14 16 30 31q18 14 31 23q16 -57 39 -91q27 -39 55 -59q37 -27 60 -33q35 -10 61.5 -10t67.5 10q31 8 73 33q37 23 72 59q37 41 64 91q10 -6 26 -23q14 -14 23 -31q-37 -80 -80 -135q-45 -57 -86 -90q-37 -29 -88 -47 q-41 -14 -84 -14q-47 0 -84 14q-43 16 -76 49q-35 35 -61 88q-23 43 -43 135z" />
<glyph unicode="&#x103;" d="M47 305q0 68 21 154q18 78 55 145.5t92 128.5q51 57 125 109q20 14 59 34.5t68 30.5q31 10 72 21q33 8 71 8q20 0 41 -6q25 -6 39 -15l37 -18l35 -20q6 4 53 30l57 29l25 -45q-25 -20 -29 -25q-12 -10 -20 -26q-8 -14 -14 -35q-6 -22 -13 -55q-18 -88 -28 -146 q-2 -16 -7.5 -45l-9.5 -50.5t-6 -39.5q-4 -29 -14 -111q-4 -33 -4 -71q0 -102 14 -144q16 -45 36.5 -45t45.5 6q37 8 65 23l15 -45q-102 -70 -148 -92q-61 -31 -92 -31q-18 0 -37 12q-16 12 -33 43q-18 35 -26 88q-10 61 -10 144q-27 -45 -66 -96q-37 -49 -80 -93 q-45 -45 -86 -71.5t-84 -26.5q-35 0 -71 18q-39 18 -72 62q-31 39 -53.5 106.5t-22.5 159.5zM215 379q0 -55 10 -111q10 -51 27 -82q20 -39 41 -53q23 -16 49 -16q20 0 51 24q33 27 66 68q51 66 71 94q37 52 68 111q0 6 4 39.5t8 52.5l17 92q8 45 14 84q4 20 7 36.5t5 29.5 q-20 16 -32 24q-31 20 -35 23q-35 16 -39 18q-23 6 -41 6q-43 0 -84 -22q-37 -20 -72 -58q-33 -35 -57 -82q-27 -49 -43.5 -94t-26.5 -96q-8 -43 -8 -88zM308 1335q14 16 30 31q18 14 31 23q16 -57 39 -91q27 -39 55 -59q37 -27 60 -33q35 -10 61.5 -10t67.5 10q31 8 73 33 q37 23 72 59q37 41 64 91q10 -6 26 -23q14 -14 23 -31q-37 -80 -80 -135q-45 -57 -86 -90q-37 -29 -88 -47q-41 -14 -84 -14q-47 0 -84 14q-43 16 -76 49q-35 35 -61 88q-23 43 -43 135z" />
<glyph unicode="&#x106;" horiz-adv-x="1009" d="M72 459q0 94 18 192q16 90 59.5 188.5t100.5 176.5q61 84 145 151q70 55 162 90q86 33 184 33q94 0 174 -28q122 -44 122 -76q0 -7 -9 -23q-14 -27 -31 -47q-25 -33 -39 -49t-34 -37l-39 10q-18 25 -41 47q-25 27 -53 41q-27 14 -64 24.5t-76 10.5q-35 0 -84 -16 q-43 -14 -86 -47q-63 -47 -106 -123q-47 -80 -72 -156q-27 -78 -39 -162q-12 -80 -12 -143q0 -106 29 -186q29 -78 73 -127q49 -51 101 -72q57 -23 102 -22q16 0 61 8q34 6 74 24q49 23 88 47q51 31 107 76q4 -2 8 -10l8 -16l8 -17q2 -6 7 -10q-63 -63 -130 -113 q-57 -43 -118 -73q-59 -31 -107 -41q-43 -10 -98 -11q-82 0 -150 33q-74 35 -127 94q-55 61 -86 152q-30 88 -30 207zM536 1396l381 320q16 -12 29 -19l32 -20l16.5 -12.5t16.5 -10.5q15 -9 25 -18v-51l-461 -242q-18 10 -23 20z" />
<glyph unicode="&#x107;" horiz-adv-x="819" d="M59 322q0 72 15 137q16 78 44.5 139t82.5 129q47 59 125 111q10 6 61 34q16 8 74 33q27 12 76 23q35 8 73 8q43 0 80 -16q34 -15 62 -37q6 -4 24.5 -18.5l26.5 -20.5q25 -20 41 -27l-20.5 -15t-26.5 -22l-49 -37q-10 -8 -48 -28q-18 -10 -34 -10q-14 0 -29 18l-39 39 q-20 20 -45 38.5t-57 18.5q-43 0 -78 -20q-39 -23 -66 -56q-33 -39 -51 -79q-20 -43 -37 -97q-16 -55 -22 -100q-6 -52 -6 -98q0 -65 12 -117q12 -51 36.5 -88t57.5 -55q37 -20 72 -21q14 0 51 8q29 6 65 25q20 10 82 47q25 14 101 74q4 -4 8 -12.5t10 -16.5q2 -4 9.5 -11 t9.5 -12q-77 -71 -142 -116q-63 -45 -114 -70q-55 -27 -97 -35q-47 -10 -82 -10q-41 0 -79 16q-47 20 -84 60q-37 41 -66 112q-27 69 -27 175zM487 1065l260 397l29 -8q6 -2 20.5 -5t20.5 -5q29 -8 41 -12q6 -2 15.5 -6.5t11.5 -4.5l18 -49l-362 -348q-10 2 -27 14 q-13 9 -27 27z" />
<glyph unicode="&#x108;" horiz-adv-x="1009" d="M72 459q0 94 18 192q16 90 59.5 188.5t100.5 176.5q61 84 145 151q70 55 162 90q86 33 184 33q94 0 174 -28q122 -44 122 -76q0 -7 -9 -23q-14 -27 -31 -47q-25 -33 -39 -49t-34 -37l-39 10q-18 25 -41 47q-25 27 -53 41q-27 14 -64 24.5t-76 10.5q-35 0 -84 -16 q-43 -14 -86 -47q-63 -47 -106 -123q-47 -80 -72 -156q-27 -78 -39 -162q-12 -80 -12 -143q0 -106 29 -186q29 -78 73 -127q49 -51 101 -72q57 -23 102 -22q16 0 61 8q34 6 74 24q49 23 88 47q51 31 107 76q4 -2 8 -10l8 -16l8 -17q2 -6 7 -10q-63 -63 -130 -113 q-57 -43 -118 -73q-59 -31 -107 -41q-43 -10 -98 -11q-82 0 -150 33q-74 35 -127 94q-55 61 -86 152q-30 88 -30 207zM414 1392l281 303h100l199 -303l-14.5 -18.5t-10.5 -12.5q-4 -4 -26 -18l-222 195l-270 -195q-9 6 -18 18q-13 17 -19 31z" />
<glyph unicode="&#x109;" horiz-adv-x="819" d="M59 322q0 72 15 137q16 78 44.5 139t82.5 129q47 59 125 111q10 6 61 34q16 8 74 33q27 12 76 23q35 8 73 8q43 0 80 -16q34 -15 62 -37q6 -4 24.5 -18.5l26.5 -20.5q25 -20 41 -27l-20.5 -15t-26.5 -22l-49 -37q-10 -8 -48 -28q-18 -10 -34 -10q-14 0 -29 18l-39 39 q-20 20 -45 38.5t-57 18.5q-43 0 -78 -20q-39 -23 -66 -56q-33 -39 -51 -79q-20 -43 -37 -97q-16 -55 -22 -100q-6 -52 -6 -98q0 -65 12 -117q12 -51 36.5 -88t57.5 -55q37 -20 72 -21q14 0 51 8q29 6 65 25q20 10 82 47q25 14 101 74q4 -4 8 -12.5t10 -16.5q2 -4 9.5 -11 t9.5 -12q-77 -71 -142 -116q-63 -45 -114 -70q-55 -27 -97 -35q-47 -10 -82 -10q-41 0 -79 16q-47 20 -84 60q-37 41 -66 112q-27 69 -27 175zM270 1073l289 375h106l189 -375q-14 -20 -25 -31q-2 -2 -28 -18l-213 252l-279 -252q-9 6 -18 18q-17 23 -21 31z" />
<glyph unicode="&#x10a;" horiz-adv-x="1009" d="M72 459q0 94 18 192q16 90 59.5 188.5t100.5 176.5q61 84 145 151q70 55 162 90q86 33 184 33q94 0 174 -28q122 -44 122 -76q0 -7 -9 -23q-14 -27 -31 -47q-25 -33 -39 -49t-34 -37l-39 10q-18 25 -41 47q-25 27 -53 41q-27 14 -64 24.5t-76 10.5q-35 0 -84 -16 q-43 -14 -86 -47q-63 -47 -106 -123q-47 -80 -72 -156q-27 -78 -39 -162q-12 -80 -12 -143q0 -106 29 -186q29 -78 73 -127q49 -51 101 -72q57 -23 102 -22q16 0 61 8q34 6 74 24q49 23 88 47q51 31 107 76q4 -2 8 -10l8 -16l8 -17q2 -6 7 -10q-63 -63 -130 -113 q-57 -43 -118 -73q-59 -31 -107 -41q-43 -10 -98 -11q-82 0 -150 33q-74 35 -127 94q-55 61 -86 152q-30 88 -30 207zM613 1464q0 29 8 55q10 33 26.5 55.5t43 39t55.5 16.5q37 0 55 -23q20 -25 21 -57q0 -25 -11 -60q-8 -29 -26 -53q-16 -23 -43 -39q-23 -14 -55 -14 q-37 0 -55.5 20.5t-18.5 59.5z" />
<glyph unicode="&#x10b;" horiz-adv-x="819" d="M59 322q0 72 15 137q16 78 44.5 139t82.5 129q47 59 125 111q10 6 61 34q16 8 74 33q27 12 76 23q35 8 73 8q43 0 80 -16q34 -15 62 -37q6 -4 24.5 -18.5l26.5 -20.5q25 -20 41 -27l-20.5 -15t-26.5 -22l-49 -37q-10 -8 -48 -28q-18 -10 -34 -10q-14 0 -29 18l-39 39 q-20 20 -45 38.5t-57 18.5q-43 0 -78 -20q-39 -23 -66 -56q-33 -39 -51 -79q-20 -43 -37 -97q-16 -55 -22 -100q-6 -52 -6 -98q0 -65 12 -117q12 -51 36.5 -88t57.5 -55q37 -20 72 -21q14 0 51 8q29 6 65 25q20 10 82 47q25 14 101 74q4 -4 8 -12.5t10 -16.5q2 -4 9.5 -11 t9.5 -12q-77 -71 -142 -116q-63 -45 -114 -70q-55 -27 -97 -35q-47 -10 -82 -10q-41 0 -79 16q-47 20 -84 60q-37 41 -66 112q-27 69 -27 175zM475 1180q0 29 8 55q10 33 26.5 55.5t43 39t55.5 16.5q39 0 57 -23q18 -20 19 -57q0 -25 -10 -60q-8 -29 -26.5 -53.5 t-41.5 -38.5t-57 -14q-37 0 -56 20q-18 23 -18 60z" />
<glyph unicode="&#x10c;" horiz-adv-x="1009" d="M72 459q0 94 18 192q16 90 59.5 188.5t100.5 176.5q61 84 145 151q70 55 162 90q86 33 184 33q94 0 174 -28q122 -44 122 -76q0 -7 -9 -23q-14 -27 -31 -47q-25 -33 -39 -49t-34 -37l-39 10q-18 25 -41 47q-25 27 -53 41q-27 14 -64 24.5t-76 10.5q-35 0 -84 -16 q-43 -14 -86 -47q-63 -47 -106 -123q-47 -80 -72 -156q-27 -78 -39 -162q-12 -80 -12 -143q0 -106 29 -186q29 -78 73 -127q49 -51 101 -72q57 -23 102 -22q16 0 61 8q34 6 74 24q49 23 88 47q51 31 107 76q4 -2 8 -10l8 -16l8 -17q2 -6 7 -10q-63 -63 -130 -113 q-57 -43 -118 -73q-59 -31 -107 -41q-43 -10 -98 -11q-82 0 -150 33q-74 35 -127 94q-55 61 -86 152q-30 88 -30 207zM449 1673q25 29 27 30q4 4 13 11.5t13 11.5l221 -201l271 201q14 -14 20 -23q9 -12 19 -30l-279 -305h-106z" />
<glyph unicode="&#x10d;" horiz-adv-x="819" d="M59 322q0 72 15 137q16 78 44.5 139t82.5 129q47 59 125 111q10 6 61 34q16 8 74 33q27 12 76 23q35 8 73 8q43 0 80 -16q34 -15 62 -37q6 -4 24.5 -18.5l26.5 -20.5q25 -20 41 -27l-20.5 -15t-26.5 -22l-49 -37q-10 -8 -48 -28q-18 -10 -34 -10q-14 0 -29 18l-39 39 q-20 20 -45 38.5t-57 18.5q-43 0 -78 -20q-39 -23 -66 -56q-33 -39 -51 -79q-20 -43 -37 -97q-16 -55 -22 -100q-6 -52 -6 -98q0 -65 12 -117q12 -51 36.5 -88t57.5 -55q37 -20 72 -21q14 0 51 8q29 6 65 25q20 10 82 47q25 14 101 74q4 -4 8 -12.5t10 -16.5q2 -4 9.5 -11 t9.5 -12q-77 -71 -142 -116q-63 -45 -114 -70q-55 -27 -97 -35q-47 -10 -82 -10q-41 0 -79 16q-47 20 -84 60q-37 41 -66 112q-27 69 -27 175zM315 1407q18 23 25 27q4 4 13 11t13 11l215 -235l279 235l20 -20q8 -8 19 -29l-285 -358h-109z" />
<glyph unicode="&#x10e;" horiz-adv-x="1146" d="M-2 0l6 53q61 14 100 31q35 14 39 31l148 1067l-150 -19v74q121 29 234 41q121 12 221 12q131 0 223 -39q102 -43 162 -108q66 -72 98.5 -170.5t32.5 -224.5q0 -88 -18 -177q-20 -102 -54 -174q-35 -76 -90 -155q-53 -74 -121 -127q-70 -53 -153 -84q-86 -31 -184 -31 h-494zM324 147q-2 -14 4 -24q8 -12 22 -19q18 -8 45 -10q20 -2 74 -2q76 0 135 27q57 27 111 76q49 47 88 108q43 68 65 135q29 82 39 144q12 74 13 145q0 109 -25 195t-74 147q-51 63 -122.5 96t-172.5 33h-28q-6 0 -16.5 -1t-14.5 -1zM430 1673q25 29 27 30q4 4 13 11.5 t13 11.5l221 -201l271 201q14 -14 20 -23q9 -12 19 -30l-279 -305h-106z" />
<glyph unicode="&#x110;" horiz-adv-x="1146" d="M-2 0l6 53q61 14 100 31q35 14 39 31l68 493h-125l-18 29l34 74h123l66 471l-150 -19v74q121 29 234 41q121 12 221 12q131 0 223 -39q102 -43 162 -108q66 -72 98.5 -170.5t32.5 -224.5q0 -88 -18 -177q-20 -102 -54 -174q-35 -76 -90 -155q-53 -74 -121 -127 q-70 -53 -153 -84q-86 -31 -184 -31h-494zM324 147q-2 -14 4 -24q8 -12 22 -19q18 -8 45 -10q20 -2 74 -2q76 0 135 27q57 27 111 76q49 47 88 108q43 68 65 135q29 82 39 144q12 74 13 145q0 109 -25 195t-74 147q-51 63 -122.5 96t-172.5 33h-28q-6 0 -16.5 -1t-14.5 -1 l-68 -485h236l20 -27l-34 -76h-234z" />
<glyph unicode="&#x111;" horiz-adv-x="983" d="M47 315q0 80 19 154q20 80 53 141q37 68 90 127q52 58 123 105q33 23 61 35q45 20 68 28q41 14 71 23q33 8 68 8q22 0 43 -12q35 -20 45 -29l17 106q8 53 14 101h-270l-23 26q10 27 16 37q4 6 10.5 18.5t10.5 18.5h268l8 70q2 20 2 53q0 29 -2 37q-4 14 -10 20 q-4 6 -14 9q-6 2 -19 2q-2 0 -26 -4q-4 0 -33 -11q-20 -6 -45 -12l-12 49q43 20 90 39l86 35q12 4 71 22q27 8 45 9q29 0 46 -19q16 -20 16 -63q0 -16 -8 -99q-6 -66 -19 -137h140l20 -26l-37 -74h-137q-8 -55 -27 -154l-12 -79t-14 -81q-10 -53 -27 -151l-22 -139 q-2 -14 -15 -113q-6 -49 -6 -82q0 -104 12.5 -153.5t34.5 -49.5q29 0 53 6q37 8 62 21l12 -47q-86 -59 -145 -88q-66 -33 -99 -33q-18 0 -34.5 14.5t-32.5 49.5q-12 27 -23 90q-8 55 -12 141q-49 -82 -76 -117q-43 -55 -82 -92q-51 -47 -84 -63q-45 -23 -81.5 -23t-75.5 21 q-41 23 -74 63q-34 43 -55 111q-23 71 -23 161zM215 379q0 -61 12 -111q12 -47 30.5 -81.5t43.5 -53.5q23 -16 53 -16q25 0 52 20q39 31 63 60q29 35 68 92q37 55 73 123q4 20 11.5 67l11.5 74q6 35 9 56.5l7 48t10 61.5l-34 35q-18 16 -39 32q-22 15 -43 25q-18 8 -45 8 q-43 0 -82 -22q-43 -25 -70 -58q-39 -45 -57 -82q-29 -51 -41 -94q-16 -51 -25 -96q-8 -43 -8 -88z" />
<glyph unicode="&#x112;" horiz-adv-x="966" d="M-2 0l6 53q61 14 100 31q35 14 39 31l144 1030q2 12 -29 31q-23 14 -94 30l6 54h766l27 -27q0 -4 -5.5 -25.5t-9.5 -33.5q-2 -10 -8 -33t-8 -35l-11.5 -35.5t-9.5 -30.5q-10 -37 -18 -51h-53q4 36 3 64q0 42 -7 67q-12 39 -50 39h-325l-60 -424h373l23 -30l-23 -31 l-26 -33q-8 -10 -27 -29q-16 -16 -25 -22q-18 18 -30 26q-18 12 -43 19q-20 4 -60 8q-25 2 -88 2h-86l-63 -481q-4 -16 2 -26.5t24 -20.5q18 -9 56 -13q49 -4 96 -4h110q41 0 72 6q33 6 55 27q29 25 47 57q35 59 52 95l47 -21l-21 -84q-10 -41 -20 -76q-8 -33 -19 -63 l-16 -41h-813zM299 1470q2 4 5.5 12t5.5 13q4 10 16 30l14 29q2 8 15 25h600l20 -27q0 -2 -10 -27q-8 -14 -16 -30l-17 -29q-4 -4 -7 -12.5t-5 -10.5h-600z" />
<glyph unicode="&#x113;" horiz-adv-x="823" d="M57 303q0 70 21 152q20 84 53 143q39 72 88 129t117 113q16 14 51 34q33 18 64 31q45 16 69 23q33 8 70 8q45 0 82 -16q39 -18 57 -39q23 -25 35 -58q10 -25 10 -63q0 -27 -6 -58q-6 -35 -27 -65q-20 -35 -57 -70q-37 -37 -96 -75q-41 -27 -148 -80q-84 -41 -207 -86 q6 -49 23 -97q14 -41 39 -75q16 -25 47 -48q25 -18 53 -18q20 0 51 6q29 6 70 25q57 27 90 47q61 39 111 78l10 -11q2 -2 10 -14q4 -6 8 -14l7 -12q-94 -80 -146 -117q-72 -51 -114 -72q-57 -27 -95 -35q-47 -10 -82 -10q-37 0 -79.5 18.5t-83.5 59.5q-35 35 -66 106 q-29 68 -29 160zM231 414q127 51 191 88q70 39 106 76q39 39 47 67q10 37 11 68q0 20 -8 49q-6 20 -19 33q-16 16 -27 20q-15 6 -30 6q-18 0 -49 -12t-60 -41q-29 -31 -57 -70q-35 -49 -51 -86q-20 -43 -37 -96q-13 -41 -17 -102zM226 1184q2 4 5 12t5 12q8 20 14 31l17 29 q6 15 12 24h600l20 -26q-4 -16 -10 -27l-14 -31l-17 -28l-14 -23h-600z" />
<glyph unicode="&#x114;" horiz-adv-x="966" d="M-2 0l6 53q61 14 100 31q35 14 39 31l144 1030q2 12 -29 31q-23 14 -94 30l6 54h766l27 -27q0 -4 -5.5 -25.5t-9.5 -33.5q-2 -10 -8 -33t-8 -35l-11.5 -35.5t-9.5 -30.5q-10 -37 -18 -51h-53q4 36 3 64q0 42 -7 67q-12 39 -50 39h-325l-60 -424h373l23 -30l-23 -31 l-26 -33q-8 -10 -27 -29q-16 -16 -25 -22q-18 18 -30 26q-18 12 -43 19q-20 4 -60 8q-25 2 -88 2h-86l-63 -481q-4 -16 2 -26.5t24 -20.5q18 -9 56 -13q49 -4 96 -4h110q41 0 72 6q33 6 55 27q29 25 47 57q35 59 52 95l47 -21l-21 -84q-10 -41 -20 -76q-8 -33 -19 -63 l-16 -41h-813zM347 1654q14 16 30 31q18 14 31 23q16 -57 39 -91q27 -39 55 -59q37 -27 60 -33q35 -10 61.5 -10t67.5 10q31 8 73 33q37 23 72 59q37 41 64 91q10 -6 26 -23q14 -14 23 -31q-37 -80 -80 -135q-45 -57 -86 -90q-37 -29 -88 -47q-41 -14 -84 -14q-47 0 -84 14 q-43 16 -76 49q-35 35 -61 88q-23 43 -43 135z" />
<glyph unicode="&#x115;" horiz-adv-x="823" d="M57 303q0 70 21 152q20 84 53 143q39 72 88 129t117 113q16 14 51 34q33 18 64 31q45 16 69 23q33 8 70 8q45 0 82 -16q39 -18 57 -39q23 -25 35 -58q10 -25 10 -63q0 -27 -6 -58q-6 -35 -27 -65q-20 -35 -57 -70q-37 -37 -96 -75q-41 -27 -148 -80q-84 -41 -207 -86 q6 -49 23 -97q14 -41 39 -75q16 -25 47 -48q25 -18 53 -18q20 0 51 6q29 6 70 25q57 27 90 47q61 39 111 78l10 -11q2 -2 10 -14q4 -6 8 -14l7 -12q-94 -80 -146 -117q-72 -51 -114 -72q-57 -27 -95 -35q-47 -10 -82 -10q-37 0 -79.5 18.5t-83.5 59.5q-35 35 -66 106 q-29 68 -29 160zM231 414q127 51 191 88q70 39 106 76q39 39 47 67q10 37 11 68q0 20 -8 49q-6 20 -19 33q-16 16 -27 20q-15 6 -30 6q-18 0 -49 -12t-60 -41q-29 -31 -57 -70q-35 -49 -51 -86q-20 -43 -37 -96q-13 -41 -17 -102zM267 1335q14 16 30 31q18 14 31 23 q16 -57 39 -91q27 -39 55 -59q37 -27 60 -33q35 -10 61.5 -10t67.5 10q31 8 73 33q37 23 72 59q37 41 64 91q10 -6 26 -23q14 -14 23 -31q-37 -80 -80 -135q-45 -57 -86 -90q-37 -29 -88 -47q-41 -14 -84 -14q-47 0 -84 14q-43 16 -76 49q-35 35 -61 88q-23 43 -43 135z" />
<glyph unicode="&#x116;" horiz-adv-x="966" d="M-2 0l6 53q61 14 100 31q35 14 39 31l144 1030q2 12 -29 31q-23 14 -94 30l6 54h766l27 -27q0 -4 -5.5 -25.5t-9.5 -33.5q-2 -10 -8 -33t-8 -35l-11.5 -35.5t-9.5 -30.5q-10 -37 -18 -51h-53q4 36 3 64q0 42 -7 67q-12 39 -50 39h-325l-60 -424h373l23 -30l-23 -31 l-26 -33q-8 -10 -27 -29q-16 -16 -25 -22q-18 18 -30 26q-18 12 -43 19q-20 4 -60 8q-25 2 -88 2h-86l-63 -481q-4 -16 2 -26.5t24 -20.5q18 -9 56 -13q49 -4 96 -4h110q41 0 72 6q33 6 55 27q29 25 47 57q35 59 52 95l47 -21l-21 -84q-10 -41 -20 -76q-8 -33 -19 -63 l-16 -41h-813zM522 1464q0 29 8 55q10 33 26.5 55.5t43 39t55.5 16.5q37 0 55 -23q20 -25 21 -57q0 -25 -11 -60q-8 -29 -26 -53q-16 -23 -43 -39q-23 -14 -55 -14q-37 0 -55.5 20.5t-18.5 59.5z" />
<glyph unicode="&#x117;" horiz-adv-x="823" d="M57 303q0 70 21 152q20 84 53 143q39 72 88 129t117 113q16 14 51 34q33 18 64 31q45 16 69 23q33 8 70 8q45 0 82 -16q39 -18 57 -39q23 -25 35 -58q10 -25 10 -63q0 -27 -6 -58q-6 -35 -27 -65q-20 -35 -57 -70q-37 -37 -96 -75q-41 -27 -148 -80q-84 -41 -207 -86 q6 -49 23 -97q14 -41 39 -75q16 -25 47 -48q25 -18 53 -18q20 0 51 6q29 6 70 25q57 27 90 47q61 39 111 78l10 -11q2 -2 10 -14q4 -6 8 -14l7 -12q-94 -80 -146 -117q-72 -51 -114 -72q-57 -27 -95 -35q-47 -10 -82 -10q-37 0 -79.5 18.5t-83.5 59.5q-35 35 -66 106 q-29 68 -29 160zM231 414q127 51 191 88q70 39 106 76q39 39 47 67q10 37 11 68q0 20 -8 49q-6 20 -19 33q-16 16 -27 20q-15 6 -30 6q-18 0 -49 -12t-60 -41q-29 -31 -57 -70q-35 -49 -51 -86q-20 -43 -37 -96q-13 -41 -17 -102zM447 1180q0 29 8 55q10 33 26.5 55.5t43 39 t55.5 16.5q39 0 57 -23q18 -20 19 -57q0 -25 -10 -60q-8 -29 -26.5 -53.5t-41.5 -38.5t-57 -14q-37 0 -56 20q-18 23 -18 60z" />
<glyph unicode="&#x11a;" horiz-adv-x="966" d="M-2 0l6 53q61 14 100 31q35 14 39 31l144 1030q2 12 -29 31q-23 14 -94 30l6 54h766l27 -27q0 -4 -5.5 -25.5t-9.5 -33.5q-2 -10 -8 -33t-8 -35l-11.5 -35.5t-9.5 -30.5q-10 -37 -18 -51h-53q4 36 3 64q0 42 -7 67q-12 39 -50 39h-325l-60 -424h373l23 -30l-23 -31 l-26 -33q-8 -10 -27 -29q-16 -16 -25 -22q-18 18 -30 26q-18 12 -43 19q-20 4 -60 8q-25 2 -88 2h-86l-63 -481q-4 -16 2 -26.5t24 -20.5q18 -9 56 -13q49 -4 96 -4h110q41 0 72 6q33 6 55 27q29 25 47 57q35 59 52 95l47 -21l-21 -84q-10 -41 -20 -76q-8 -33 -19 -63 l-16 -41h-813zM359 1673q25 29 27 30q4 4 13 11.5t13 11.5l221 -201l271 201q14 -14 20 -23q9 -12 19 -30l-279 -305h-106z" />
<glyph unicode="&#x11b;" horiz-adv-x="823" d="M57 303q0 70 21 152q20 84 53 143q39 72 88 129t117 113q16 14 51 34q33 18 64 31q45 16 69 23q33 8 70 8q45 0 82 -16q39 -18 57 -39q23 -25 35 -58q10 -25 10 -63q0 -27 -6 -58q-6 -35 -27 -65q-20 -35 -57 -70q-37 -37 -96 -75q-41 -27 -148 -80q-84 -41 -207 -86 q6 -49 23 -97q14 -41 39 -75q16 -25 47 -48q25 -18 53 -18q20 0 51 6q29 6 70 25q57 27 90 47q61 39 111 78l10 -11q2 -2 10 -14q4 -6 8 -14l7 -12q-94 -80 -146 -117q-72 -51 -114 -72q-57 -27 -95 -35q-47 -10 -82 -10q-37 0 -79.5 18.5t-83.5 59.5q-35 35 -66 106 q-29 68 -29 160zM231 414q127 51 191 88q70 39 106 76q39 39 47 67q10 37 11 68q0 20 -8 49q-6 20 -19 33q-16 16 -27 20q-15 6 -30 6q-18 0 -49 -12t-60 -41q-29 -31 -57 -70q-35 -49 -51 -86q-20 -43 -37 -96q-13 -41 -17 -102zM287 1407q18 23 25 27q4 4 13 11t13 11 l215 -235l279 235l20 -20q8 -8 19 -29l-285 -358h-109z" />
<glyph unicode="&#x11c;" horiz-adv-x="1087" d="M72 477q0 100 20 191q20 88 64 182q45 94 94 162q51 70 125 129q90 72 188 108q106 41 234 41q18 0 67 -8q39 -6 78 -18q27 -8 72 -33q41 -23 61 -43q6 -6 -6 -27q-14 -27 -31 -47q-12 -16 -41 -49q-16 -18 -36 -35l-37 8q-45 66 -110.5 98.5t-156.5 32.5q-35 0 -92 -26 q-59 -29 -106 -70q-46 -40 -86 -104q-35 -57 -66 -142q-29 -78 -43 -155q-14 -74 -14 -152q0 -108 31 -184q33 -82 79 -129q51 -51 109 -74q61 -25 119 -24q51 0 96 12q41 10 82 41l41 299q0 6 -4 18q-4 10 -27 21q-31 12 -65 20q-57 12 -119 23l6 53h485l-6 -53 q-49 -14 -78 -39q-27 -23 -28 -43l-10 -72q-4 -23 -6.5 -44t-4.5 -44q-2 -18 -6 -40.5t-6 -43.5q-2 -14 -4 -33.5t-2 -23.5q-86 -70 -135 -99q-55 -33 -111 -57q-53 -23 -92 -29q-43 -6 -84 -6q-84 0 -166 35q-76 33 -139 98q-61 65 -99 160q-34 90 -34 215zM448 1392 l281 303h100l199 -303l-14.5 -18.5t-10.5 -12.5q-4 -4 -26 -18l-222 195l-270 -195q-9 6 -18 18q-13 17 -19 31z" />
<glyph unicode="&#x11d;" horiz-adv-x="927" d="M-10 -383q0 18 14 41q10 16 35 45q18 23 39 39q16 14 24 14q10 0 27 -20q15 -18 43 -43q29 -25 70 -43q43 -18 110 -19q88 0 144 78q59 82 86 244q6 35 14 96q4 31 8 88.5t4 83.5q0 25 4 82q-31 -55 -77 -123q-51 -74 -86 -110q-43 -45 -95 -80q-47 -31 -90 -31 q-31 0 -71 18q-37 16 -72 62q-35 43 -55 106q-23 68 -23 160q0 68 20.5 154t53.5 145q37 68 92 129q47 53 131 109q20 14 59 35q34 18 68 30q23 8 72 21q33 8 71 8q20 0 41 -6q8 -2 41 -17q23 -10 39 -20l17.5 -12.5l17.5 -12.5q37 29 55 39l53 29l27 -45q-35 -29 -53 -70 q-20 -43 -29 -112q-12 -104 -20 -215l-11 -181l-12 -159q-8 -102 -18 -154q-18 -102 -68 -195q-47 -88 -117 -157q-72 -72 -145 -109q-78 -39 -158 -39q-45 0 -94 13q-55 14 -90 28q-43 18 -69.5 39t-26.5 37zM213 379q0 -55 10 -111q8 -45 29 -82q18 -35 43 -53 q23 -16 51 -16q20 0 49 26q37 33 70 74q45 55 80 115q49 82 78 145q4 66 8 92q10 82 14 102.5t8 33.5q2 4 5.5 14l5.5 16q-8 6 -16.5 14.5t-16.5 14.5q-16 14 -39 27q-20 12 -41 20q-18 8 -45 8q-43 0 -84 -22q-37 -20 -72 -58q-33 -35 -57 -82q-27 -49 -43.5 -94t-26.5 -96 q-10 -55 -10 -88zM246 1073l289 375h106l189 -375q-14 -20 -25 -31q-2 -2 -28 -18l-213 252l-279 -252q-9 6 -18 18q-17 23 -21 31z" />
<glyph unicode="&#x11e;" horiz-adv-x="1087" d="M72 477q0 100 20 191q20 88 64 182q45 94 94 162q51 70 125 129q90 72 188 108q106 41 234 41q18 0 67 -8q39 -6 78 -18q27 -8 72 -33q41 -23 61 -43q6 -6 -6 -27q-14 -27 -31 -47q-12 -16 -41 -49q-16 -18 -36 -35l-37 8q-45 66 -110.5 98.5t-156.5 32.5q-35 0 -92 -26 q-59 -29 -106 -70q-46 -40 -86 -104q-35 -57 -66 -142q-29 -78 -43 -155q-14 -74 -14 -152q0 -108 31 -184q33 -82 79 -129q51 -51 109 -74q61 -25 119 -24q51 0 96 12q41 10 82 41l41 299q0 6 -4 18q-4 10 -27 21q-31 12 -65 20q-57 12 -119 23l6 53h485l-6 -53 q-49 -14 -78 -39q-27 -23 -28 -43l-10 -72q-4 -23 -6.5 -44t-4.5 -44q-2 -18 -6 -40.5t-6 -43.5q-2 -14 -4 -33.5t-2 -23.5q-86 -70 -135 -99q-55 -33 -111 -57q-53 -23 -92 -29q-43 -6 -84 -6q-84 0 -166 35q-76 33 -139 98q-61 65 -99 160q-34 90 -34 215zM474 1654 q14 16 30 31q18 14 31 23q16 -57 39 -91q27 -39 55 -59q37 -27 60 -33q35 -10 61.5 -10t67.5 10q31 8 73 33q37 23 72 59q37 41 64 91q10 -6 26 -23q14 -14 23 -31q-37 -80 -80 -135q-45 -57 -86 -90q-37 -29 -88 -47q-41 -14 -84 -14q-47 0 -84 14q-43 16 -76 49 q-35 35 -61 88q-23 43 -43 135z" />
<glyph unicode="&#x11f;" horiz-adv-x="927" d="M-10 -383q0 18 14 41q10 16 35 45q18 23 39 39q16 14 24 14q10 0 27 -20q15 -18 43 -43q29 -25 70 -43q43 -18 110 -19q88 0 144 78q59 82 86 244q6 35 14 96q4 31 8 88.5t4 83.5q0 25 4 82q-31 -55 -77 -123q-51 -74 -86 -110q-43 -45 -95 -80q-47 -31 -90 -31 q-31 0 -71 18q-37 16 -72 62q-35 43 -55 106q-23 68 -23 160q0 68 20.5 154t53.5 145q37 68 92 129q47 53 131 109q20 14 59 35q34 18 68 30q23 8 72 21q33 8 71 8q20 0 41 -6q8 -2 41 -17q23 -10 39 -20l17.5 -12.5l17.5 -12.5q37 29 55 39l53 29l27 -45q-35 -29 -53 -70 q-20 -43 -29 -112q-12 -104 -20 -215l-11 -181l-12 -159q-8 -102 -18 -154q-18 -102 -68 -195q-47 -88 -117 -157q-72 -72 -145 -109q-78 -39 -158 -39q-45 0 -94 13q-55 14 -90 28q-43 18 -69.5 39t-26.5 37zM213 379q0 -55 10 -111q8 -45 29 -82q18 -35 43 -53 q23 -16 51 -16q20 0 49 26q37 33 70 74q45 55 80 115q49 82 78 145q4 66 8 92q10 82 14 102.5t8 33.5q2 4 5.5 14l5.5 16q-8 6 -16.5 14.5t-16.5 14.5q-16 14 -39 27q-20 12 -41 20q-18 8 -45 8q-43 0 -84 -22q-37 -20 -72 -58q-33 -35 -57 -82q-27 -49 -43.5 -94t-26.5 -96 q-10 -55 -10 -88zM271 1335q14 16 30 31q18 14 31 23q16 -57 39 -91q27 -39 55 -59q37 -27 60 -33q35 -10 61.5 -10t67.5 10q31 8 73 33q37 23 72 59q37 41 64 91q10 -6 26 -23q14 -14 23 -31q-37 -80 -80 -135q-45 -57 -86 -90q-37 -29 -88 -47q-41 -14 -84 -14 q-47 0 -84 14q-43 16 -76 49q-35 35 -61 88q-23 43 -43 135z" />
<glyph unicode="&#x120;" horiz-adv-x="1087" d="M72 477q0 100 20 191q20 88 64 182q45 94 94 162q51 70 125 129q90 72 188 108q106 41 234 41q18 0 67 -8q39 -6 78 -18q27 -8 72 -33q41 -23 61 -43q6 -6 -6 -27q-14 -27 -31 -47q-12 -16 -41 -49q-16 -18 -36 -35l-37 8q-45 66 -110.5 98.5t-156.5 32.5q-35 0 -92 -26 q-59 -29 -106 -70q-46 -40 -86 -104q-35 -57 -66 -142q-29 -78 -43 -155q-14 -74 -14 -152q0 -108 31 -184q33 -82 79 -129q51 -51 109 -74q61 -25 119 -24q51 0 96 12q41 10 82 41l41 299q0 6 -4 18q-4 10 -27 21q-31 12 -65 20q-57 12 -119 23l6 53h485l-6 -53 q-49 -14 -78 -39q-27 -23 -28 -43l-10 -72q-4 -23 -6.5 -44t-4.5 -44q-2 -18 -6 -40.5t-6 -43.5q-2 -14 -4 -33.5t-2 -23.5q-86 -70 -135 -99q-55 -33 -111 -57q-53 -23 -92 -29q-43 -6 -84 -6q-84 0 -166 35q-76 33 -139 98q-61 65 -99 160q-34 90 -34 215zM647 1464 q0 29 8 55q10 33 26.5 55.5t43 39t55.5 16.5q37 0 55 -23q20 -25 21 -57q0 -25 -11 -60q-8 -29 -26 -53q-16 -23 -43 -39q-23 -14 -55 -14q-37 0 -55.5 20.5t-18.5 59.5z" />
<glyph unicode="&#x121;" horiz-adv-x="927" d="M-10 -383q0 18 14 41q10 16 35 45q18 23 39 39q16 14 24 14q10 0 27 -20q15 -18 43 -43q29 -25 70 -43q43 -18 110 -19q88 0 144 78q59 82 86 244q6 35 14 96q4 31 8 88.5t4 83.5q0 25 4 82q-31 -55 -77 -123q-51 -74 -86 -110q-43 -45 -95 -80q-47 -31 -90 -31 q-31 0 -71 18q-37 16 -72 62q-35 43 -55 106q-23 68 -23 160q0 68 20.5 154t53.5 145q37 68 92 129q47 53 131 109q20 14 59 35q34 18 68 30q23 8 72 21q33 8 71 8q20 0 41 -6q8 -2 41 -17q23 -10 39 -20l17.5 -12.5l17.5 -12.5q37 29 55 39l53 29l27 -45q-35 -29 -53 -70 q-20 -43 -29 -112q-12 -104 -20 -215l-11 -181l-12 -159q-8 -102 -18 -154q-18 -102 -68 -195q-47 -88 -117 -157q-72 -72 -145 -109q-78 -39 -158 -39q-45 0 -94 13q-55 14 -90 28q-43 18 -69.5 39t-26.5 37zM213 379q0 -55 10 -111q8 -45 29 -82q18 -35 43 -53 q23 -16 51 -16q20 0 49 26q37 33 70 74q45 55 80 115q49 82 78 145q4 66 8 92q10 82 14 102.5t8 33.5q2 4 5.5 14l5.5 16q-8 6 -16.5 14.5t-16.5 14.5q-16 14 -39 27q-20 12 -41 20q-18 8 -45 8q-43 0 -84 -22q-37 -20 -72 -58q-33 -35 -57 -82q-27 -49 -43.5 -94t-26.5 -96 q-10 -55 -10 -88zM449 1180q0 29 8 55q10 33 26.5 55.5t43 39t55.5 16.5q39 0 57 -23q18 -20 19 -57q0 -25 -10 -60q-8 -29 -26.5 -53.5t-41.5 -38.5t-57 -14q-37 0 -56 20q-18 23 -18 60z" />
<glyph unicode="&#x124;" horiz-adv-x="1257" d="M-2 0l6 53q61 14 100 31q35 14 39 31l144 1030q2 12 -29 31q-23 14 -94 30l6 54h436l-8 -54q-70 -16 -98 -30q-39 -18 -41 -31l-60 -434h533l59 434q2 12 -28 31q-23 14 -95 30l6 54h439l-8 -54q-74 -18 -101 -30q-37 -18 -39 -31l-141 -1030q-4 -12 27 -31 q23 -12 96 -31l-8 -53h-437l9 53q61 14 100 31q35 14 39 31l68 493h-533l-66 -493q-4 -12 27 -31q23 -14 94 -31l-8 -53h-434zM473 1392l281 303h100l199 -303l-14.5 -18.5t-10.5 -12.5q-4 -4 -26 -18l-222 195l-270 -195q-9 6 -18 18q-13 17 -19 31z" />
<glyph unicode="&#x125;" horiz-adv-x="1032" d="M82 -8q8 53 22 133q0 4 27 174l16.5 96t16.5 101l33 206l15 110.5t13 92.5q16 100 25 180q2 27 9 76t9 70q6 61 6 94q0 20 -4 36.5t-8 20.5q-2 2 -14 9q-4 2 -15 2q-4 0 -28 -4q-8 -2 -18.5 -5.5t-18.5 -5.5l-47 -12l-15 49l89 37l88 35q47 16 75 24q31 8 48 9 q29 0 45 -19q16 -20 16 -63q0 -23 -6 -78q-10 -102 -15 -125l-22 -152q-6 -35 -11 -73.5t-12 -79.5l-11 -74l-9 -63l-16 -101q59 68 114 115q59 51 109 76q55 29 102 41q49 12 94 12q37 0 56 -8q25 -10 37 -29q16 -25 22 -53q6 -35 6 -80q0 -37 -6 -86q-10 -86 -14 -109 q-14 -88 -21 -120q-6 -31 -20 -117q-14 -82 -17 -103q-6 -46 -6 -73q0 -37 10 -47q12 -12 25 -13q33 0 57 8q23 8 64 25l18 -45q-61 -37 -168 -90q-74 -37 -118 -37q-29 0 -52 31q-23 33 -22 86q0 33 4 63q0 4 16 105l21 127l20 129q2 8 8.5 49t8.5 59q6 49 6 72q0 27 -4 59 q-2 18 -10 39q-6 14 -18.5 20.5t-33.5 6.5q-12 0 -43 -12q-29 -10 -67 -41q-43 -33 -78 -70q-53 -57 -78 -100q-27 -47 -45 -119q-14 -55 -33 -162q-4 -20 -7 -53t-5 -43l-8 -72q-2 -20 -2 -53v-41l-37 -19q-6 -2 -20.5 -9t-28.5 -13q-8 -4 -17.5 -7t-15.5 -6t-16.5 -7.5 t-22.5 -11.5l-12 -7zM391 1653l281 303h100l199 -303l-14.5 -18.5t-10.5 -12.5q-4 -4 -26 -18l-222 195l-270 -195q-9 6 -18 18q-13 17 -19 31z" />
<glyph unicode="&#x128;" horiz-adv-x="591" d="M18 0l9 53q57 14 98 31q39 16 41 31l139 1030q2 12 -29 31q-25 14 -92 30l9 54h434l-9 -54q-74 -18 -100 -30q-37 -18 -39 -31l-141 -1030q-4 -12 27 -31q23 -12 96 -31l-8 -53h-435zM96 1390q25 47 49 84q29 45 62 78q41 41 69 57q39 23 78 23q35 0 68 -17 q29 -14 57 -36q4 -4 21.5 -18.5t27.5 -20.5q27 -16 47 -17q39 0 76 31q39 33 74 88l53 -25q-18 -33 -49 -81q-29 -43 -59 -78q-31 -33 -72 -58q-39 -23 -78 -22q-37 0 -61 16l-23 15q-23 14 -33 22t-27.5 20.5t-23.5 16.5q-23 16 -55 16q-37 0 -72 -30q-37 -35 -78 -86z" />
<glyph unicode="&#x129;" horiz-adv-x="524" d="M66 829q18 8 39.5 18.5t46.5 20.5l86 33l73 25q35 10 47 10q29 0 41.5 -18.5t12.5 -65.5q0 -10 -9 -84q-6 -55 -18 -123l-25 -139l-24 -141q-12 -68 -19 -123q-8 -74 -8 -84q0 -25 8 -45q6 -14 23 -15q33 0 57 8q59 20 70 25l16 -45q-125 -74 -166 -92q-74 -35 -118 -35 q-34 0 -56 31q-23 33 -22 86q0 10 8 84q2 20 9 61t9 58q6 43 23 137q18 104 23 135q2 20 9 59t9 56q8 66 8 73q0 20 -4 37q-4 18 -6 21q-4 6 -14 8q-6 2 -17 2q-4 0 -24.5 -4t-32.5 -8t-41 -13zM55 1104q18 33 50 82q23 37 61 78q37 41 70 59q39 23 77 23q37 0 68 -19 q43 -27 57 -37l49 -37q23 -16 48 -16q39 0 75 31q39 33 74 88l53 -25q-18 -33 -49 -82q-33 -51 -59 -78q-37 -37 -72 -57q-39 -23 -78 -22q-33 0 -61 16q-28 15 -55 37q-23 18 -54 37q-27 16 -55 16q-39 0 -72 -31q-31 -27 -75 -86z" />
<glyph unicode="&#x12a;" horiz-adv-x="591" d="M18 0l9 53q57 14 98 31q39 16 41 31l139 1030q2 12 -29 31q-25 14 -92 30l9 54h434l-9 -54q-74 -18 -100 -30q-37 -18 -39 -31l-141 -1030q-4 -12 27 -31q23 -12 96 -31l-8 -53h-435zM188 1503q2 4 5 12t5 12q8 20 15 31l16 29q6 15 12 24h459l23 -26q0 -2 -11 -27 l-16 -31q-4 -4 -8 -14t-6 -14q-6 -10 -15 -23h-460z" />
<glyph unicode="&#x12b;" horiz-adv-x="524" d="M66 829q18 8 39.5 18.5t46.5 20.5l86 33l73 25q35 10 47 10q29 0 41.5 -18.5t12.5 -65.5q0 -10 -9 -84q-6 -55 -18 -123l-25 -139l-24 -141q-12 -68 -19 -123q-8 -74 -8 -84q0 -25 8 -45q6 -14 23 -15q33 0 57 8q59 20 70 25l16 -45q-125 -74 -166 -92q-74 -35 -118 -35 q-34 0 -56 31q-23 33 -22 86q0 10 8 84q2 20 9 61t9 58q6 43 23 137q18 104 23 135q2 20 9 59t9 56q8 66 8 73q0 20 -4 37q-4 18 -6 21q-4 6 -14 8q-6 2 -17 2q-4 0 -24.5 -4t-32.5 -8t-41 -13zM143 1184q2 4 5 12t5 12q8 20 15 31l16 29q6 15 12 24h459l23 -26 q0 -2 -11 -27l-16 -31q-4 -4 -8 -14t-6 -14q-6 -10 -15 -23h-460z" />
<glyph unicode="&#x12c;" horiz-adv-x="591" d="M18 0l9 53q57 14 98 31q39 16 41 31l139 1030q2 12 -29 31q-25 14 -92 30l9 54h434l-9 -54q-74 -18 -100 -30q-37 -18 -39 -31l-141 -1030q-4 -12 27 -31q23 -12 96 -31l-8 -53h-435zM160 1654q14 16 30 31q18 14 31 23q16 -57 39 -91q27 -39 55 -59q37 -27 60 -33 q35 -10 61.5 -10t67.5 10q31 8 73 33q37 23 72 59q37 41 64 91q10 -6 26 -23q14 -14 23 -31q-37 -80 -80 -135q-45 -57 -86 -90q-37 -29 -88 -47q-41 -14 -84 -14q-47 0 -84 14q-43 16 -76 49q-35 35 -61 88q-23 43 -43 135z" />
<glyph unicode="&#x12d;" horiz-adv-x="524" d="M66 829q18 8 39.5 18.5t46.5 20.5l86 33l73 25q35 10 47 10q29 0 41.5 -18.5t12.5 -65.5q0 -10 -9 -84q-6 -55 -18 -123l-25 -139l-24 -141q-12 -68 -19 -123q-8 -74 -8 -84q0 -25 8 -45q6 -14 23 -15q33 0 57 8q59 20 70 25l16 -45q-125 -74 -166 -92q-74 -35 -118 -35 q-34 0 -56 31q-23 33 -22 86q0 10 8 84q2 20 9 61t9 58q6 43 23 137q18 104 23 135q2 20 9 59t9 56q8 66 8 73q0 20 -4 37q-4 18 -6 21q-4 6 -14 8q-6 2 -17 2q-4 0 -24.5 -4t-32.5 -8t-41 -13zM115 1335q14 16 30 31q18 14 31 23q16 -57 39 -91q27 -39 55 -59 q37 -27 60 -33q35 -10 61.5 -10t67.5 10q31 8 73 33q37 23 72 59q37 41 64 91q10 -6 26 -23q14 -14 23 -31q-37 -80 -80 -135q-45 -57 -86 -90q-37 -29 -88 -47q-41 -14 -84 -14q-47 0 -84 14q-43 16 -76 49q-35 35 -61 88q-23 43 -43 135z" />
<glyph unicode="&#x130;" horiz-adv-x="591" d="M18 0l9 53q57 14 98 31q39 16 41 31l139 1030q2 12 -29 31q-25 14 -92 30l9 54h434l-9 -54q-74 -18 -100 -30q-37 -18 -39 -31l-141 -1030q-4 -12 27 -31q23 -12 96 -31l-8 -53h-435zM334 1464q0 29 8 55q10 33 26.5 55.5t43 39t55.5 16.5q37 0 55 -23q20 -25 21 -57 q0 -25 -11 -60q-8 -29 -26 -53q-16 -23 -43 -39q-23 -14 -55 -14q-37 0 -55.5 20.5t-18.5 59.5z" />
<glyph unicode="&#x131;" horiz-adv-x="524" d="M66 829q18 8 39.5 18.5t46.5 20.5l86 33l73 25q35 10 47 10q29 0 41.5 -18.5t12.5 -65.5q0 -10 -9 -84q-6 -55 -18 -123l-25 -139l-24 -141q-12 -68 -19 -123q-8 -74 -8 -84q0 -25 8 -45q6 -14 23 -15q33 0 57 8q59 20 70 25l16 -45q-125 -74 -166 -92q-74 -35 -118 -35 q-34 0 -56 31q-23 33 -22 86q0 10 8 84q2 20 9 61t9 58q6 43 23 137q18 104 23 135q2 20 9 59t9 56q8 66 8 73q0 20 -4 37q-4 18 -6 21q-4 6 -14 8q-6 2 -17 2q-4 0 -24.5 -4t-32.5 -8t-41 -13z" />
<glyph unicode="&#x132;" horiz-adv-x="1189" d="M18 0l9 53q57 14 98 31q39 16 41 31l139 1030q2 12 -29 31q-25 14 -92 30l9 54h434l-9 -54q-74 -18 -100 -30q-37 -18 -39 -31l-141 -1030q-4 -12 27 -31q23 -12 96 -31l-8 -53h-435zM305 -301q0 12 17 31l39 39q14 14 47 34q27 16 34 17q6 0 23 -13l29 -22 q16 -12 39 -23q25 -10 53 -10q25 0 51 15q31 16 57 59q27 41 52 115q27 78 41 192l139 1012q0 6 -6 12q-8 8 -25 17q-10 6 -51 16q-18 6 -86 16l6 54h481l-8 -54q-74 -18 -100 -30q-37 -18 -39 -31l-129 -940q-15 -117 -43 -197q-25 -72 -64 -135q-34 -55 -73 -92 q-43 -39 -82 -70q-29 -23 -60 -39q-34 -18 -67 -30q-47 -16 -64 -21q-31 -6 -51 -6q-37 0 -61 8q-23 8 -49.5 22.5t-36.5 28.5q-13 16 -13 25z" />
<glyph unicode="&#x133;" horiz-adv-x="1046" d="M66 829q18 8 39.5 18.5t46.5 20.5l86 33l73 25q35 10 47 10q29 0 41.5 -18.5t12.5 -65.5q0 -10 -9 -84q-6 -55 -18 -123l-25 -139l-24 -141q-12 -68 -19 -123q-8 -74 -8 -84q0 -25 8 -45q6 -14 23 -15q33 0 57 8q59 20 70 25l16 -45q-125 -74 -166 -92q-74 -35 -118 -35 q-34 0 -56 31q-23 33 -22 86q0 10 8 84q2 20 9 61t9 58q6 43 23 137q18 104 23 135q2 20 9 59t9 56q8 66 8 73q0 20 -4 37q-4 18 -6 21q-4 6 -14 8q-6 2 -17 2q-4 0 -24.5 -4t-32.5 -8t-41 -13zM291 1176q0 31 8 55q8 27 29 53q14 20 45 39q23 14 57 14q41 0 59 -20 q18 -22 19 -55q0 -25 -10 -56q-10 -33 -27 -53q-12 -16 -45 -37q-23 -14 -57 -14q-39 0 -60 20q-18 19 -18 54zM137 -418q0 14 14 37q14 25 35 47q25 29 39 39q23 16 31 16q4 0 22 -14q2 -2 14.5 -12t20.5 -17q33 -23 51 -30q37 -14 72 -15q39 0 74 25q33 25 57 70 q27 51 45 118q23 84 35 164q18 109 22 142q6 39 15 124l6 50l6 51q4 45 6 74q8 63 8 67l9 86q2 16 5 44t3 38q2 25 2 53.5t-2 36.5q-4 14 -10 21q-4 4 -13 8q-4 2 -16 2q-4 0 -24.5 -4t-33 -8l-40.5 -13l-17 47l41 18.5l47 20.5l47 17.5t41 15.5q37 14 72 24.5t45 10.5 q28 0 43 -12q16 -12 16 -54q0 -20 -2 -39q0 -6 -3 -27.5l-5 -35.5q-4 -37 -8 -80l-8 -84q-2 -27 -8 -74q-4 -39 -7 -57q-8 -61 -18 -172q-8 -82 -29 -227q-18 -111 -49 -191t-67 -135q-41 -63 -78 -96q-55 -51 -82 -72q-18 -14 -60 -35q-39 -18 -63 -26q-39 -12 -61 -15 q-37 -4 -50 -4q-35 0 -65 8q-33 8 -64 23q-29 12 -45 26.5t-16 24.5zM788 1176q0 25 10 55q8 27 29 53q16 23 43 39q23 14 60 14q39 0 59 -20q18 -18 18 -55q0 -25 -10 -56q-10 -33 -27 -53q-14 -20 -45 -37q-27 -14 -59 -14q-39 0 -57 20q-21 25 -21 54z" />
<glyph unicode="&#x139;" d="M-2 0l6 53q61 14 100 31q35 14 39 31l144 1030q2 12 -29 31q-23 14 -94 30l6 54h436l-8 -54q-70 -16 -98 -30q-39 -18 -41 -31l-133 -977q-2 -16 4 -30.5t24 -22.5q14 -6 52 -11q45 -4 81 -4h119q41 0 72 6q33 6 55 27q29 25 47 57q35 59 51 95l48 -21l-21 -84 q-4 -14 -12 -39.5t-10 -36.5q-8 -33 -18.5 -63.5t-14.5 -40.5h-805zM414 1396l381 320q16 -12 29 -19l32 -20l16.5 -12.5t16.5 -10.5q15 -9 25 -18v-51l-461 -242q-18 10 -23 20z" />
<glyph unicode="&#x13a;" horiz-adv-x="501" d="M98 78q0 6 8 84q6 58 19 141l27 178q8 51 15 102.5t15 98.5q8 49 15.5 100.5l15.5 102.5l27 186q18 125 20 154q6 68 6 100q0 20 -4 37q-4 14 -10 20q-4 4 -16 9q-6 2 -21 2l-25 -4q-4 0 -32 -11q-20 -6 -43 -12l-17 49l90 37l88 35q53 18 74 24q31 8 49 9q31 0 45 -19 q16 -20 17 -63q0 -16 -8 -107q-2 -33 -21 -155q-2 -18 -7 -55.5t-10 -69t-9 -62.5l-15.5 -101l-15.5 -100l-33 -200q-6 -43 -27 -182q-18 -131 -20 -150q-6 -65 -6 -98q0 -37 8 -47q10 -12 27 -13q25 0 51 8q57 16 76 25l12 -45q-111 -70 -168 -94q-76 -33 -125 -33 q-28 0 -49 31q-23 33 -23 88zM260 1716l381 320q16 -12 29 -19l32 -20l16.5 -12.5t16.5 -10.5q15 -9 25 -18v-51l-461 -242q-18 10 -23 20z" />
<glyph unicode="&#x141;" d="M-2 0l6 53q61 14 100 31q35 14 39 31l54 385l-123 -66l-23 23q2 8 10 28l17 33q4 6 8 16.5t8 14.5q8 16 15 20l106 56l72 520q2 12 -29 31q-23 14 -94 30l6 54h436l-8 -54q-70 -16 -98 -30q-39 -18 -41 -31l-58 -424l271 141l18 -24q-4 -16 -8 -26.5t-16 -31.5l-17 -28 l-14 -23l-250 -131l-59 -430q-2 -16 4 -30.5t24 -22.5q14 -6 52 -11q45 -4 81 -4h119q41 0 72 6q33 6 55 27q29 25 47 57q35 59 51 95l48 -21l-21 -84q-4 -14 -12 -39.5t-10 -36.5q-8 -33 -18.5 -63.5t-14.5 -40.5h-805z" />
<glyph unicode="&#x142;" horiz-adv-x="542" d="M31 553q0 6 1 9t3 7t2 6.5t2 8.5t2 10q2 6 10 22l17 35l145 101l29 182l22 166q2 12 8.5 62t8.5 73q6 59 6 90q0 20 -4 37q-2 10 -13 20q-4 4 -16 9q-6 2 -18 2l-25 -4q-8 -2 -35 -11l-41 -12l-16 49l88 37q61 25 90 35q53 18 74 24q31 8 49 9q28 0 43 -19q16 -20 16 -63 q0 -34 -6 -92q-10 -104 -14 -132l-23 -157q-12 -86 -26 -174l143 98l27 -25q-2 -6 -5.5 -15t-3.5 -11l-8 -21q-6 -16 -8 -20q-4 -6 -14 -27l-152 -102l-16 -101.5l-15 -91.5q-6 -35 -13 -93t-11 -81q-12 -80 -19 -141q-8 -82 -8 -94q0 -33 10 -47q9 -12 25 -13q27 0 53 8 q49 14 74 25l14 -45q-111 -70 -168 -94q-76 -33 -125 -33q-31 0 -51 31q-20 29 -20 88q0 25 6 76q2 18 8 61t8 66q12 88 25 163l29 183l-144 -97z" />
<glyph unicode="&#x143;" horiz-adv-x="1247" d="M0 0l6 53q66 8 103 29q31 16 34 33l142 1026q-23 29 -56 45q-27 14 -71 20l8 54h203h32q4 0 21 -11q4 -4 16 -22q4 -6 12.5 -21.5t12.5 -23.5l473 -899l119 862q0 6 -6.5 14t-18.5 17q-20 12 -37 18q-12 4 -59 12l6 54h373l-6 -54q-70 -10 -101 -26q-33 -16 -35 -35 l-163 -1176q-55 6 -90 25q-39 20 -60 63l-479 920l-119 -862q-3 -12 25 -31q27 -18 96 -31l-8 -53h-373zM590 1396l381 320q16 -12 29 -19l32 -20l16.5 -12.5t16.5 -10.5q15 -9 25 -18v-51l-461 -242q-18 10 -23 20z" />
<glyph unicode="&#x144;" horiz-adv-x="1034" d="M43 831q63 29 88 37l88 33q33 12 76 25q35 10 45 10q8 0 20 -4q8 -2 13 -17q6 -25 6 -34q0 -6 1 -24.5t1 -33.5v-28q0 -4 -1 -16.5t-1 -18.5q0 -12 -4 -37q-2 -12 -2 -31q61 70 108 111q53 45 107 76q39 23 102 43q45 14 94 14q33 0 56 -8q25 -10 41 -29q18 -23 26 -51 q8 -31 8 -80q0 -34 -6 -86l-16 -111q-10 -57 -23 -118q-6 -33 -11 -65t-9 -54q-2 -14 -9 -50t-10 -53q-6 -46 -6 -73q0 -33 11 -47q8 -12 26 -13q27 0 51 8q45 16 68 25l20 -45q-72 -43 -88 -51l-79 -39q-35 -16 -66 -27q-35 -10 -51 -10q-34 0 -55 31q-23 33 -23 86 q0 2 8 63q12 88 15 105l22 127q6 35 21 129q2 8 8 49t8 59q6 49 6 72q0 72 -14 98q-16 29 -54 29q-8 0 -43 -14q-23 -10 -65 -41q-37 -29 -78 -72q-47 -51 -76 -100q-27 -47 -45 -115q-12 -47 -35 -164q-4 -18 -7 -46t-5 -36q-4 -23 -8 -67q-2 -20 -2 -58v-55l-37 -19 q-12 -4 -24.5 -10l-24.5 -12q-8 -4 -17.5 -7t-15.5 -6t-16 -7.5t-23 -11.5l-12 -7l-37 33q18 84 29 141l24 152l23 147q2 16 9 63.5t9 69.5q2 18 6.5 54l6.5 53q4 61 4 69q0 29 -2 37q-4 16 -7 21q-2 2 -12 8q-4 2 -16 2q-2 0 -27 -4q-20 -4 -35 -8q-8 -2 -19 -6.5t-24 -8.5 zM534 1065l260 397l29 -8q6 -2 20.5 -5t20.5 -5q29 -8 41 -12q6 -2 15.5 -6.5t11.5 -4.5l18 -49l-362 -348q-10 2 -27 14q-13 9 -27 27z" />
<glyph unicode="&#x147;" horiz-adv-x="1247" d="M0 0l6 53q66 8 103 29q31 16 34 33l142 1026q-23 29 -56 45q-27 14 -71 20l8 54h203h32q4 0 21 -11q4 -4 16 -22q4 -6 12.5 -21.5t12.5 -23.5l473 -899l119 862q0 6 -6.5 14t-18.5 17q-20 12 -37 18q-12 4 -59 12l6 54h373l-6 -54q-70 -10 -101 -26q-33 -16 -35 -35 l-163 -1176q-55 6 -90 25q-39 20 -60 63l-479 920l-119 -862q-3 -12 25 -31q27 -18 96 -31l-8 -53h-373zM502 1673q25 29 27 30q4 4 13 11.5t13 11.5l221 -201l271 201q14 -14 20 -23q9 -12 19 -30l-279 -305h-106z" />
<glyph unicode="&#x148;" horiz-adv-x="1034" d="M43 831q63 29 88 37l88 33q33 12 76 25q35 10 45 10q8 0 20 -4q8 -2 13 -17q6 -25 6 -34q0 -6 1 -24.5t1 -33.5v-28q0 -4 -1 -16.5t-1 -18.5q0 -12 -4 -37q-2 -12 -2 -31q61 70 108 111q53 45 107 76q39 23 102 43q45 14 94 14q33 0 56 -8q25 -10 41 -29q18 -23 26 -51 q8 -31 8 -80q0 -34 -6 -86l-16 -111q-10 -57 -23 -118q-6 -33 -11 -65t-9 -54q-2 -14 -9 -50t-10 -53q-6 -46 -6 -73q0 -33 11 -47q8 -12 26 -13q27 0 51 8q45 16 68 25l20 -45q-72 -43 -88 -51l-79 -39q-35 -16 -66 -27q-35 -10 -51 -10q-34 0 -55 31q-23 33 -23 86 q0 2 8 63q12 88 15 105l22 127q6 35 21 129q2 8 8 49t8 59q6 49 6 72q0 72 -14 98q-16 29 -54 29q-8 0 -43 -14q-23 -10 -65 -41q-37 -29 -78 -72q-47 -51 -76 -100q-27 -47 -45 -115q-12 -47 -35 -164q-4 -18 -7 -46t-5 -36q-4 -23 -8 -67q-2 -20 -2 -58v-55l-37 -19 q-12 -4 -24.5 -10l-24.5 -12q-8 -4 -17.5 -7t-15.5 -6t-16 -7.5t-23 -11.5l-12 -7l-37 33q18 84 29 141l24 152l23 147q2 16 9 63.5t9 69.5q2 18 6.5 54l6.5 53q4 61 4 69q0 29 -2 37q-4 16 -7 21q-2 2 -12 8q-4 2 -16 2q-2 0 -27 -4q-20 -4 -35 -8q-8 -2 -19 -6.5t-24 -8.5 zM363 1407q18 23 25 27q4 4 13 11t13 11l215 -235l279 235l20 -20q8 -8 19 -29l-285 -358h-109z" />
<glyph unicode="&#x14a;" horiz-adv-x="1169" d="M0 0l6 53q61 14 100 31q35 14 39 31l125 903q10 68 9 90q-4 33 -21 41q-18 10 -49 4q-47 -8 -92 -20l-13 65l47 18.5t54 18.5q27 10 92 29q47 14 72 18q41 8 47 8q25 0 35 -28q8 -25 8 -78q0 -27 -2 -45q-3 -28 -6 -62q-4 -41 -9 -67q-6 -37 -12 -68q70 104 131 162 q63 61 135 106q68 43 129.5 61.5t108.5 18.5q33 0 70 -12q35 -12 65 -39q27 -25 47 -78q20 -55 21 -119q0 -40 -7 -92l-100 -729q-16 -109 -45 -190q-31 -88 -74 -158q-49 -80 -92 -129q-51 -57 -104 -96q-16 -12 -58 -35q-35 -18 -69 -31q-29 -10 -76 -20q-35 -8 -74 -8 q-41 0 -84 12q-37 10 -73.5 32.5t-51.5 39.5q-20 25 -20 36q0 6 18 29q25 31 43 45q4 4 52 39q25 18 40 18q10 0 27 -18q20 -25 37 -41q23 -23 53.5 -41t71.5 -18q117 0 192 116q74 113 109 357l90 682q4 27 8 71q4 49 4 62q0 47 -8 74q-10 35 -22 49q-16 20 -37 28 q-18 8 -47 9q-27 0 -70 -17q-37 -14 -86 -47q-41 -29 -94 -74q-41 -37 -90 -102q-39 -51 -72 -129q-29 -66 -41 -152l-68 -499q-2 -12 29 -31q23 -14 94 -31l-8 -53h-434z" />
<glyph unicode="&#x14b;" horiz-adv-x="1009" d="M35 831q76 33 92 39l86 33l74 25q27 8 45 8q10 0 22 -4q8 -2 13 -17q6 -25 6 -34v-58v-28q0 -4 -1 -16.5t-1 -18.5q0 -12 -4 -37q-2 -12 -2 -31q61 70 108 111q49 41 109 76q39 23 102 43q45 14 92 14q33 0 55 -8q29 -10 43 -29q16 -18 25 -51q8 -31 8 -80q0 -12 -4 -70 l-6 -50l-6 -50l-17 -127q-12 -86 -22 -141l-25 -146q-6 -41 -14 -77.5t-12 -63.5q-18 -92 -45 -160q-31 -78 -60 -125q-27 -43 -75 -96q-45 -49 -84 -80q-33 -27 -60 -39q-27 -14 -63 -24q-41 -12 -60 -15q-6 0 -25.5 -3t-27.5 -3q-31 0 -72 13q-47 14 -73 26q-25 12 -60 33 q-25 16 -24 27q0 14 14 36q14 25 35 48q25 29 39 38q23 16 31 16.5t28 -16.5q12 -10 45 -34q25 -18 57.5 -35t65.5 -17q47 0 82 19q33 18 59 59q25 37 47 111q20 61 39 168q39 199 45 237q29 180 33 207q20 147 21 156q8 86 8 90q0 70 -16.5 98.5t-53.5 28.5q-8 0 -43 -14 q-23 -10 -65 -41q-43 -33 -78 -70q-43 -47 -76 -102q-27 -47 -45 -115q-12 -47 -35 -164q-18 -106 -20 -149q-4 -80 -2 -113l-37 -19q-6 -2 -20.5 -9t-28.5 -13q-8 -4 -17.5 -7t-15.5 -6t-16.5 -7.5t-22.5 -11.5l-12 -7l-35 33q12 51 27 141q14 76 26 152q18 111 23 147 q2 16 9 63.5t9 69.5l6 54l6 53q4 61 5 69q0 29 -2.5 37t-8.5 21q-2 2 -12 8q-4 2 -14 2q-2 0 -27 -4q-20 -4 -35 -8q-8 -2 -19.5 -6.5t-25.5 -8.5z" />
<glyph unicode="&#x14c;" horiz-adv-x="1134" d="M86 485q0 78 10 138q10 63 35 141q18 59 53 133q31 63 72 121q57 74 90 106q51 51 106.5 86t123 57.5t139.5 22.5q100 0 176 -41q72 -39 123 -112q47 -68 71.5 -164t24.5 -199q0 -57 -14.5 -143t-34.5 -146q-20 -61 -60 -137q-29 -59 -79 -123q-41 -51 -93 -100 q-55 -51 -104 -82q-47 -29 -117 -53q-59 -20 -127 -21q-96 0 -172 41q-78 41 -125 111q-49 71 -73 166q-25 94 -25 198zM266 532q0 -92 19 -172q16 -76 53 -137q33 -55 84 -88q53 -33 108 -33q72 0 132 31q61 33 102 82q49 59 76 119q29 66 51 139q18 63 28.5 145t10.5 138 q0 94 -17 159q-18 76 -51 129.5t-84 85.5q-53 33 -112 33q-68 0 -129 -28q-51 -25 -100.5 -80.5t-76.5 -112.5q-33 -70 -53 -135q-22 -71 -31 -141q-10 -79 -10 -134zM405 1470q2 4 5.5 12t5.5 13q4 10 16 30l14 29q2 8 15 25h600l20 -27q0 -2 -10 -27q-8 -14 -16 -30 l-17 -29q-4 -4 -7 -12.5t-5 -10.5h-600z" />
<glyph unicode="&#x14d;" horiz-adv-x="878" d="M47 344q0 61 14 139q12 72 39 129q27 59 74 119q39 47 113 109q52 40 116 67q68 29 127 29q74 0 136 -29q55 -27 94 -78q33 -43 53 -118q18 -68 18 -152q0 -63 -16 -135q-16 -74 -45 -133q-31 -65 -74 -123t-98 -105q-25 -20 -57 -40q-20 -12 -62 -33q-16 -8 -63 -23 q-27 -8 -62 -8q-74 0 -129 28.5t-96 82.5q-40 52 -61 123q-21 67 -21 151zM221 406q0 -63 17 -125q16 -63 43 -105q31 -47 63 -70q41 -27 80 -26.5t76 21t59 51.5q31 43 45 75q18 45 31 88q12 46 18 93q4 31 4 88q0 152 -53 235q-51 80 -141 80q-45 0 -82 -18 q-35 -16 -62 -48q-25 -27 -45 -71q-18 -40 -30 -86q-8 -31 -17 -92q-6 -45 -6 -90zM220 1184q2 4 5 12t5 12q8 20 14 31l17 29q6 15 12 24h600l20 -26q-4 -16 -10 -27l-14 -31l-17 -28l-14 -23h-600z" />
<glyph unicode="&#x14e;" horiz-adv-x="1134" d="M86 485q0 78 10 138q10 63 35 141q18 59 53 133q31 63 72 121q57 74 90 106q51 51 106.5 86t123 57.5t139.5 22.5q100 0 176 -41q72 -39 123 -112q47 -68 71.5 -164t24.5 -199q0 -57 -14.5 -143t-34.5 -146q-20 -61 -60 -137q-29 -59 -79 -123q-41 -51 -93 -100 q-55 -51 -104 -82q-47 -29 -117 -53q-59 -20 -127 -21q-96 0 -172 41q-78 41 -125 111q-49 71 -73 166q-25 94 -25 198zM266 532q0 -92 19 -172q16 -76 53 -137q33 -55 84 -88q53 -33 108 -33q72 0 132 31q61 33 102 82q49 59 76 119q29 66 51 139q18 63 28.5 145t10.5 138 q0 94 -17 159q-18 76 -51 129.5t-84 85.5q-53 33 -112 33q-68 0 -129 -28q-51 -25 -100.5 -80.5t-76.5 -112.5q-33 -70 -53 -135q-22 -71 -31 -141q-10 -79 -10 -134zM453 1654q14 16 30 31q18 14 31 23q16 -57 39 -91q27 -39 55 -59q37 -27 60 -33q35 -10 61.5 -10t67.5 10 q31 8 73 33q37 23 72 59q37 41 64 91q10 -6 26 -23q14 -14 23 -31q-37 -80 -80 -135q-45 -57 -86 -90q-37 -29 -88 -47q-41 -14 -84 -14q-47 0 -84 14q-43 16 -76 49q-35 35 -61 88q-23 43 -43 135z" />
<glyph unicode="&#x14f;" horiz-adv-x="878" d="M47 344q0 61 14 139q12 72 39 129q27 59 74 119q39 47 113 109q52 40 116 67q68 29 127 29q74 0 136 -29q55 -27 94 -78q33 -43 53 -118q18 -68 18 -152q0 -63 -16 -135q-16 -74 -45 -133q-31 -65 -74 -123t-98 -105q-25 -20 -57 -40q-20 -12 -62 -33q-16 -8 -63 -23 q-27 -8 -62 -8q-74 0 -129 28.5t-96 82.5q-40 52 -61 123q-21 67 -21 151zM221 406q0 -63 17 -125q16 -63 43 -105q31 -47 63 -70q41 -27 80 -26.5t76 21t59 51.5q31 43 45 75q18 45 31 88q12 46 18 93q4 31 4 88q0 152 -53 235q-51 80 -141 80q-45 0 -82 -18 q-35 -16 -62 -48q-25 -27 -45 -71q-18 -40 -30 -86q-8 -31 -17 -92q-6 -45 -6 -90zM261 1335q14 16 30 31q18 14 31 23q16 -57 39 -91q27 -39 55 -59q37 -27 60 -33q35 -10 61.5 -10t67.5 10q31 8 73 33q37 23 72 59q37 41 64 91q10 -6 26 -23q14 -14 23 -31 q-37 -80 -80 -135q-45 -57 -86 -90q-37 -29 -88 -47q-41 -14 -84 -14q-47 0 -84 14q-43 16 -76 49q-35 35 -61 88q-23 43 -43 135z" />
<glyph unicode="&#x150;" horiz-adv-x="1134" d="M86 485q0 78 10 138q10 63 35 141q18 59 53 133q31 63 72 121q57 74 90 106q51 51 106.5 86t123 57.5t139.5 22.5q100 0 176 -41q72 -39 123 -112q47 -68 71.5 -164t24.5 -199q0 -57 -14.5 -143t-34.5 -146q-20 -61 -60 -137q-29 -59 -79 -123q-41 -51 -93 -100 q-55 -51 -104 -82q-47 -29 -117 -53q-59 -20 -127 -21q-96 0 -172 41q-78 41 -125 111q-49 71 -73 166q-25 94 -25 198zM266 532q0 -92 19 -172q16 -76 53 -137q33 -55 84 -88q53 -33 108 -33q72 0 132 31q61 33 102 82q49 59 76 119q29 66 51 139q18 63 28.5 145t10.5 138 q0 94 -17 159q-18 76 -51 129.5t-84 85.5q-53 33 -112 33q-68 0 -129 -28q-51 -25 -100.5 -80.5t-76.5 -112.5q-33 -70 -53 -135q-22 -71 -31 -141q-10 -79 -10 -134zM545 1372l203 409q4 -2 13 -3t13 -1t15.5 -3t17.5 -5q8 -2 16 -3t17 -3q10 -2 22 -6l19 -47l-283 -367 q-10 2 -27 10q-10 5 -26 19zM811 1372l207 409q4 -2 12 -3t12.5 -1t15.5 -3t17 -5q8 -2 16.5 -3t16.5 -3q10 -2 22 -6l19 -47l-283 -367q-10 2 -26 10q-15 9 -29 19z" />
<glyph unicode="&#x151;" horiz-adv-x="878" d="M47 344q0 61 14 139q12 72 39 129q27 59 74 119q39 47 113 109q52 40 116 67q68 29 127 29q74 0 136 -29q55 -27 94 -78q33 -43 53 -118q18 -68 18 -152q0 -63 -16 -135q-16 -74 -45 -133q-31 -65 -74 -123t-98 -105q-25 -20 -57 -40q-20 -12 -62 -33q-16 -8 -63 -23 q-27 -8 -62 -8q-74 0 -129 28.5t-96 82.5q-40 52 -61 123q-21 67 -21 151zM221 406q0 -63 17 -125q16 -63 43 -105q31 -47 63 -70q41 -27 80 -26.5t76 21t59 51.5q31 43 45 75q18 45 31 88q12 46 18 93q4 31 4 88q0 152 -53 235q-51 80 -141 80q-45 0 -82 -18 q-35 -16 -62 -48q-25 -27 -45 -71q-18 -40 -30 -86q-8 -31 -17 -92q-6 -45 -6 -90zM352 1053l203 409q4 -2 13 -3t13 -1t15.5 -3t17.5 -5q8 -2 16 -3t17 -3q10 -2 22 -6l19 -47l-283 -367q-10 2 -27 10q-10 5 -26 19zM618 1053l207 409q4 -2 12 -3t12.5 -1t15.5 -3t17 -5 q8 -2 16.5 -3t16.5 -3q10 -2 22 -6l19 -47l-283 -367q-10 2 -26 10q-15 9 -29 19z" />
<glyph unicode="&#x152;" horiz-adv-x="1525" d="M86 502q2 96 29 198q23 94 65.5 184.5t98.5 162.5q55 70 124 127q68 55 146 86q77 31 160 30q29 0 65 -4q23 -2 53 -10q47 -12 52 -12q37 -4 65 -4h549l29 -27q-2 -6 -5.5 -26.5t-7.5 -32.5l-18 -68q-4 -12 -11 -35.5t-10 -30.5q-10 -37 -18 -51h-51q8 88 -4 131 q-12 39 -47 39h-295l-60 -424h338l25 -30l-25 -31q-12 -16 -26 -33q-8 -10 -27 -29l-7 -7t-8 -9t-8 -6q-8 12 -26 24q-18 14 -32.5 18.5t-47.5 8.5q-37 4 -66 4h-102l-65 -481v-27q0 -10 14 -20q12 -8 45 -13q41 -4 92 -4h107q41 0 71 6q33 6 56 27q33 29 49 57q35 59 51 95 l47 -21l-11 -45t-9 -39q-10 -41 -21 -76q-8 -33 -18.5 -63.5t-14.5 -40.5h-604q-68 0 -92 -4q-37 -6 -67.5 -12.5t-61.5 -10.5q-20 -4 -74 -4q-100 0 -174 43q-76 45 -123 115q-49 76 -73.5 170t-20.5 205zM264 553q-4 -111 12 -182q18 -80 54 -142q33 -57 84 -92t112 -35 q63 0 121 15q47 12 98 47l125 911q-43 45 -94 66q-57 23 -117 22q-68 0 -120 -26q-59 -29 -99 -72q-51 -55 -75 -104q-33 -68 -54 -130q-18 -59 -32 -139q-11 -61 -15 -139z" />
<glyph unicode="&#x153;" horiz-adv-x="1394" d="M47 344q0 61 14 139q10 59 41 127q29 66 72 119q49 63 109 111q20 18 55 39q31 18 61.5 30.5t61.5 18.5q41 8 61 8q104 0 172 -55q66 -53 94 -154q47 55 117 113q10 10 53 34q33 18 64 31q39 14 69.5 22.5t69.5 8.5q45 0 82 -16q35 -14 57 -39q23 -23 37 -58 q10 -25 11 -63q0 -27 -7 -58q-6 -35 -26 -65q-20 -35 -58 -70q-35 -35 -98 -75q-51 -33 -147 -80q-89 -43 -209 -86q6 -49 22 -97q12 -37 39 -73q22 -31 49 -50q29 -18 54 -18q20 0 51 6q29 6 69 25q57 27 91 47q61 39 110 78l10 -11q2 -2 11 -14q2 -2 5 -7t5 -7l4 -12 q-94 -80 -145 -117q-72 -51 -115 -72q-57 -27 -94 -35q-47 -10 -82 -10q-23 0 -57.5 10.5t-63.5 30.5q-31 23 -59.5 59.5t-44.5 85.5q-6 -6 -17.5 -20t-17.5 -23q-12 -14 -41 -38.5t-56 -40.5q-20 -12 -61 -33q-20 -10 -61 -23q-27 -8 -60 -8q-74 0 -125 29q-55 31 -94 82 q-37 47 -59 123q-23 73 -23 151zM219 408q0 -66 17 -127q16 -63 43 -105q31 -47 61 -70q37 -27 74 -26q35 0 71.5 20.5t59.5 51.5q31 43 45 75q18 45 31 88q12 45 18 95q6 45 6 88q0 152 -53 233q-51 80 -139 80q-63 0 -105 -39q-47 -43 -72 -98q-29 -61 -43 -131 q-14 -65 -14 -135zM801 414q133 55 192 88q68 39 109 76q39 35 47 67q10 37 10 68q0 57 -26 82q-31 27 -62 26q-10 0 -47 -14q-31 -12 -57 -39q-35 -31 -62 -70q-28 -40 -49 -86t-37 -98q-16 -53 -18 -100z" />
<glyph unicode="&#x154;" horiz-adv-x="1099" d="M-2 0l6 53q61 14 100 31q35 14 39 31l146 1069q-27 -4 -76 -13q-55 -8 -76 -14l2 70l94 24q41 10 103 21q16 2 113 12q61 6 129 6q94 0 167 -20q77 -22 129 -62q51 -39 80 -100t29 -137q0 -43 -18 -99q-16 -49 -60 -108q-41 -55 -102 -100q-59 -43 -152 -66l230 -403 q18 -31 32 -45q16 -18 39 -21q23 -4 54 6q61 18 77 25l23 -47l-80 -50l-78 -40q-33 -16 -63.5 -26.5t-40.5 -10.5q-16 0 -33 6q-25 10 -33 18q-16 16 -30.5 39t-34.5 68l-211 469q-18 2 -60 6q-27 2 -57 10l-66 -487q-2 -12 29 -31q23 -14 94 -31l-8 -53h-436zM397 686 q51 -14 109 -14q63 0 112 16q57 18 99 51q37 29 65 86q27 53 27 117q0 70 -27 123q-23 45 -67 80q-35 27 -90 41q-49 12 -95 12h-32h-31zM473 1396l381 320q16 -12 29 -19l32 -20l16.5 -12.5t16.5 -10.5q15 -9 25 -18v-51l-461 -242q-18 10 -23 20z" />
<glyph unicode="&#x155;" horiz-adv-x="761" d="M37 829q10 4 39.5 18.5t48.5 20.5l88 33l74 25q37 10 47 10q8 0 20 -4q8 -2 13 -17q6 -25 6 -34q0 -6 1 -24.5t1 -31.5q0 -2 -4 -34.5t-6 -51.5l-7 -55l-4 -23.5t-4 -21.5q47 88 92 149q39 51 80 91q35 31 72 45q33 12 68 12q14 0 34 -10q12 -6 35 -25q10 -8 37 -27 q16 -14 41 -24q-16 -20 -29 -43l-32 -53q-20 -33 -31 -45q-16 -18 -27 -19q-20 0 -33 10q-20 16 -28 25l-25 25q-12 12 -29 12q-23 0 -59 -33q-33 -29 -67 -84q-27 -39 -64 -123q-27 -59 -51 -139q-8 -25 -21 -82q-6 -33 -14 -88q-8 -61 -10 -90q-2 -22 -2 -43t2 -41 q-6 -2 -16.5 -8t-22.5 -11q-6 -2 -20.5 -9t-28.5 -13l-47 -21q-8 -4 -20.5 -11t-14.5 -7l-37 33q6 25 15 74t14 71q8 41 26 150l23 141q2 16 9 60t9 67q8 82 10 107l5 77q0 29 -3 37q-4 14 -10 21q-4 4 -12 8q-4 2 -16 2q-6 0 -27 -4t-33 -8t-41 -13zM417 1065l260 397 l29 -8q6 -2 20.5 -5t20.5 -5q29 -8 41 -12q6 -2 15.5 -6.5t11.5 -4.5l18 -49l-362 -348q-10 2 -27 14q-13 9 -27 27z" />
<glyph unicode="&#x158;" horiz-adv-x="1099" d="M-2 0l6 53q61 14 100 31q35 14 39 31l146 1069q-27 -4 -76 -13q-55 -8 -76 -14l2 70l94 24q41 10 103 21q16 2 113 12q61 6 129 6q94 0 167 -20q77 -22 129 -62q51 -39 80 -100t29 -137q0 -43 -18 -99q-16 -49 -60 -108q-41 -55 -102 -100q-59 -43 -152 -66l230 -403 q18 -31 32 -45q16 -18 39 -21q23 -4 54 6q61 18 77 25l23 -47l-80 -50l-78 -40q-33 -16 -63.5 -26.5t-40.5 -10.5q-16 0 -33 6q-25 10 -33 18q-16 16 -30.5 39t-34.5 68l-211 469q-18 2 -60 6q-27 2 -57 10l-66 -487q-2 -12 29 -31q23 -14 94 -31l-8 -53h-436zM397 686 q51 -14 109 -14q63 0 112 16q57 18 99 51q37 29 65 86q27 53 27 117q0 70 -27 123q-23 45 -67 80q-35 27 -90 41q-49 12 -95 12h-32h-31zM385 1673q25 29 27 30q4 4 13 11.5t13 11.5l221 -201l271 201q14 -14 20 -23q9 -12 19 -30l-279 -305h-106z" />
<glyph unicode="&#x159;" horiz-adv-x="761" d="M37 829q10 4 39.5 18.5t48.5 20.5l88 33l74 25q37 10 47 10q8 0 20 -4q8 -2 13 -17q6 -25 6 -34q0 -6 1 -24.5t1 -31.5q0 -2 -4 -34.5t-6 -51.5l-7 -55l-4 -23.5t-4 -21.5q47 88 92 149q39 51 80 91q35 31 72 45q33 12 68 12q14 0 34 -10q12 -6 35 -25q10 -8 37 -27 q16 -14 41 -24q-16 -20 -29 -43l-32 -53q-20 -33 -31 -45q-16 -18 -27 -19q-20 0 -33 10q-20 16 -28 25l-25 25q-12 12 -29 12q-23 0 -59 -33q-33 -29 -67 -84q-27 -39 -64 -123q-27 -59 -51 -139q-8 -25 -21 -82q-6 -33 -14 -88q-8 -61 -10 -90q-2 -22 -2 -43t2 -41 q-6 -2 -16.5 -8t-22.5 -11q-6 -2 -20.5 -9t-28.5 -13l-47 -21q-8 -4 -20.5 -11t-14.5 -7l-37 33q6 25 15 74t14 71q8 41 26 150l23 141q2 16 9 60t9 67q8 82 10 107l5 77q0 29 -3 37q-4 14 -10 21q-4 4 -12 8q-4 2 -16 2q-6 0 -27 -4t-33 -8t-41 -13zM246 1407q18 23 25 27 q4 4 13 11t13 11l215 -235l279 235l20 -20q8 -8 19 -29l-285 -358h-109z" />
<glyph unicode="&#x15a;" horiz-adv-x="923" d="M41 119q0 14 12 39q12 23 33 51q25 33 39 45q25 20 35 20q4 0 18 -14l11.5 -12t15.5 -19l35 -41q23 -27 45 -43t57 -30.5t74 -14.5q49 0 104 21q51 18 86 51t58 80q20 43 20 100q0 41 -12 78q-12 35 -43 70q-33 35 -82 67q-51 33 -127 70q-63 31 -109 65q-41 33 -67.5 72 t-34.5 76q-10 45 -10 78q0 61 32 131q31 66 88.5 117t139.5 81q88 33 182 33q80 0 147 -28q66 -29 113 -64q3 -3 3 -8q0 -9 -7 -21q-25 -43 -29 -49q-18 -29 -39 -51q-25 -27 -30 -31l-39 6q-31 57 -84 99q-51 39 -111 39q-51 0 -94 -17q-37 -14 -68 -45q-27 -27 -41 -59 q-14 -31 -14 -66q0 -23 6 -47q4 -20 31 -49q22 -25 61 -55q35 -27 109 -64q66 -33 133 -78q55 -37 90 -77q37 -43 51 -86q16 -49 17 -101q0 -96 -39 -180q-39 -82 -109 -149q-72 -68 -157 -103q-92 -37 -195 -37q-43 0 -96 13q-51 12 -100 34q-53 25 -78 47q-31 28 -31 56z M428 1396l381 320q16 -12 29 -19l32 -20l16.5 -12.5t16.5 -10.5q15 -9 25 -18v-51l-461 -242q-18 10 -23 20z" />
<glyph unicode="&#x15b;" horiz-adv-x="735" d="M-8 102q0 12 12 37t30.5 49.5t35.5 40.5q18 18 28 19q8 0 17 -12q2 -4 20 -35q16 -29 29 -45q16 -20 41 -43q27 -25 57 -35q33 -12 76 -12q33 0 63.5 12t51.5 33q23 23 34 49q12 28 13 61q0 35 -17 68q-16 31 -45 57q-31 27 -61 45q-25 14 -74 39q-39 18 -88 51 q-33 23 -57 54q-23 29 -31 57q-8 27 -8 61q0 63 33 115q37 57 84 90q51 37 114 57q61 20 123 21q51 0 88 -12q49 -16 68 -27q10 -6 28.5 -18.5t22.5 -14.5q23 -14 47 -20q-37 -43 -39 -45l-12 -12.5l-13.5 -14.5t-11.5 -10q-25 -20 -35 -27q-16 -10 -22 -10q-15 0 -31 18 l-35 39q-29 29 -47 41q-28 18 -61 19q-27 0 -53 -11q-29 -10 -43 -24q-20 -20 -31 -41q-12 -25 -12 -53q0 -41 36 -78q41 -41 117 -76q70 -37 82 -45q45 -27 72 -57q33 -35 51 -74q20 -41 20 -94q0 -68 -36 -129q-37 -59 -97 -105q-70 -51 -129 -71q-71 -25 -135 -25 q-57 0 -102 14q-49 15 -86 37q-37 23 -60 47q-22 27 -22 45zM389 1065l260 397l29 -8q6 -2 20.5 -5t20.5 -5q29 -8 41 -12q6 -2 15.5 -6.5t11.5 -4.5l18 -49l-362 -348q-10 2 -27 14q-13 9 -27 27z" />
<glyph unicode="&#x15c;" horiz-adv-x="923" d="M41 119q0 14 12 39q12 23 33 51q25 33 39 45q25 20 35 20q4 0 18 -14l11.5 -12t15.5 -19l35 -41q23 -27 45 -43t57 -30.5t74 -14.5q49 0 104 21q51 18 86 51t58 80q20 43 20 100q0 41 -12 78q-12 35 -43 70q-33 35 -82 67q-51 33 -127 70q-63 31 -109 65q-41 33 -67.5 72 t-34.5 76q-10 45 -10 78q0 61 32 131q31 66 88.5 117t139.5 81q88 33 182 33q80 0 147 -28q66 -29 113 -64q3 -3 3 -8q0 -9 -7 -21q-25 -43 -29 -49q-18 -29 -39 -51q-25 -27 -30 -31l-39 6q-31 57 -84 99q-51 39 -111 39q-51 0 -94 -17q-37 -14 -68 -45q-27 -27 -41 -59 q-14 -31 -14 -66q0 -23 6 -47q4 -20 31 -49q22 -25 61 -55q35 -27 109 -64q66 -33 133 -78q55 -37 90 -77q37 -43 51 -86q16 -49 17 -101q0 -96 -39 -180q-39 -82 -109 -149q-72 -68 -157 -103q-92 -37 -195 -37q-43 0 -96 13q-51 12 -100 34q-53 25 -78 47q-31 28 -31 56z M305 1392l281 303h100l199 -303l-14.5 -18.5t-10.5 -12.5q-4 -4 -26 -18l-222 195l-270 -195q-9 6 -18 18q-13 17 -19 31z" />
<glyph unicode="&#x15d;" horiz-adv-x="735" d="M-8 102q0 12 12 37t30.5 49.5t35.5 40.5q18 18 28 19q8 0 17 -12q2 -4 20 -35q16 -29 29 -45q16 -20 41 -43q27 -25 57 -35q33 -12 76 -12q33 0 63.5 12t51.5 33q23 23 34 49q12 28 13 61q0 35 -17 68q-16 31 -45 57q-31 27 -61 45q-25 14 -74 39q-39 18 -88 51 q-33 23 -57 54q-23 29 -31 57q-8 27 -8 61q0 63 33 115q37 57 84 90q51 37 114 57q61 20 123 21q51 0 88 -12q49 -16 68 -27q10 -6 28.5 -18.5t22.5 -14.5q23 -14 47 -20q-37 -43 -39 -45l-12 -12.5l-13.5 -14.5t-11.5 -10q-25 -20 -35 -27q-16 -10 -22 -10q-15 0 -31 18 l-35 39q-29 29 -47 41q-28 18 -61 19q-27 0 -53 -11q-29 -10 -43 -24q-20 -20 -31 -41q-12 -25 -12 -53q0 -41 36 -78q41 -41 117 -76q70 -37 82 -45q45 -27 72 -57q33 -35 51 -74q20 -41 20 -94q0 -68 -36 -129q-37 -59 -97 -105q-70 -51 -129 -71q-71 -25 -135 -25 q-57 0 -102 14q-49 15 -86 37q-37 23 -60 47q-22 27 -22 45zM172 1073l289 375h106l189 -375q-14 -20 -25 -31q-2 -2 -28 -18l-213 252l-279 -252q-9 6 -18 18q-17 23 -21 31z" />
<glyph unicode="&#x160;" horiz-adv-x="923" d="M41 119q0 14 12 39q12 23 33 51q25 33 39 45q25 20 35 20q4 0 18 -14l11.5 -12t15.5 -19l35 -41q23 -27 45 -43t57 -30.5t74 -14.5q49 0 104 21q51 18 86 51t58 80q20 43 20 100q0 41 -12 78q-12 35 -43 70q-33 35 -82 67q-51 33 -127 70q-63 31 -109 65q-41 33 -67.5 72 t-34.5 76q-10 45 -10 78q0 61 32 131q31 66 88.5 117t139.5 81q88 33 182 33q80 0 147 -28q66 -29 113 -64q3 -3 3 -8q0 -9 -7 -21q-25 -43 -29 -49q-18 -29 -39 -51q-25 -27 -30 -31l-39 6q-31 57 -84 99q-51 39 -111 39q-51 0 -94 -17q-37 -14 -68 -45q-27 -27 -41 -59 q-14 -31 -14 -66q0 -23 6 -47q4 -20 31 -49q22 -25 61 -55q35 -27 109 -64q66 -33 133 -78q55 -37 90 -77q37 -43 51 -86q16 -49 17 -101q0 -96 -39 -180q-39 -82 -109 -149q-72 -68 -157 -103q-92 -37 -195 -37q-43 0 -96 13q-51 12 -100 34q-53 25 -78 47q-31 28 -31 56z M340 1673q25 29 27 30q4 4 13 11.5t13 11.5l221 -201l271 201q14 -14 20 -23q9 -12 19 -30l-279 -305h-106z" />
<glyph unicode="&#x161;" horiz-adv-x="735" d="M-8 102q0 12 12 37t30.5 49.5t35.5 40.5q18 18 28 19q8 0 17 -12q2 -4 20 -35q16 -29 29 -45q16 -20 41 -43q27 -25 57 -35q33 -12 76 -12q33 0 63.5 12t51.5 33q23 23 34 49q12 28 13 61q0 35 -17 68q-16 31 -45 57q-31 27 -61 45q-25 14 -74 39q-39 18 -88 51 q-33 23 -57 54q-23 29 -31 57q-8 27 -8 61q0 63 33 115q37 57 84 90q51 37 114 57q61 20 123 21q51 0 88 -12q49 -16 68 -27q10 -6 28.5 -18.5t22.5 -14.5q23 -14 47 -20q-37 -43 -39 -45l-12 -12.5l-13.5 -14.5t-11.5 -10q-25 -20 -35 -27q-16 -10 -22 -10q-15 0 -31 18 l-35 39q-29 29 -47 41q-28 18 -61 19q-27 0 -53 -11q-29 -10 -43 -24q-20 -20 -31 -41q-12 -25 -12 -53q0 -41 36 -78q41 -41 117 -76q70 -37 82 -45q45 -27 72 -57q33 -35 51 -74q20 -41 20 -94q0 -68 -36 -129q-37 -59 -97 -105q-70 -51 -129 -71q-71 -25 -135 -25 q-57 0 -102 14q-49 15 -86 37q-37 23 -60 47q-22 27 -22 45zM217 1407q18 23 25 27q4 4 13 11t13 11l215 -235l279 235l20 -20q8 -8 19 -29l-285 -358h-109z" />
<glyph unicode="&#x164;" horiz-adv-x="1079" d="M106 995l6.5 31l6.5 31q4 25 16 73q4 14 11.5 38t9.5 32q10 37 18 60h944l25 -27q0 -4 -10 -57q-4 -23 -17 -68q-2 -10 -8 -32.5t-8 -35.5q-9 -34 -19 -61h-51q-4 53 -6 84q-4 39 -8 55q-6 22 -19 31q-14 10 -32 10h-246l-141 -1034q0 -8 4 -14q6 -8 22 -19 q23 -14 43 -20q23 -8 70 -19l-8 -53h-471l8 53q37 8 71 19q14 4 48 20q25 12 28 17q8 8 8 16l146 1034h-260q-10 0 -27 -8q-12 -6 -27 -27q-16 -25 -32 -55l-47 -94zM410 1673q25 29 27 30q4 4 13 11.5t13 11.5l221 -201l271 201q14 -14 20 -23q9 -12 19 -30l-279 -305h-106 z" />
<glyph unicode="&#x168;" horiz-adv-x="1239" d="M166 1206l6 54h434l-8 -54q-70 -16 -98 -30q-37 -18 -39 -31l-88 -635q-6 -55 -6 -57q0 -10 -1 -28.5t-1 -27.5q0 -66 16 -125q16 -57 49 -96q31 -37 82 -59q47 -20 113 -21q65 0 116 31q57 33 95 82q43 57 65 117q27 72 35 143l92 676q3 12 -24 31q-20 14 -93 30l7 54 h385l-9 -54q-72 -16 -96 -30q-33 -18 -35 -31l-90 -633q-18 -132 -61 -233q-41 -98 -111 -170q-63 -68 -151 -105q-82 -35 -185 -35q-82 0 -151 25q-71 25 -123 74q-53 49 -80 118q-29 74 -29 162q0 59 8 115l99 682q2 12 -29 31q-22 14 -94 30zM444 1390q25 47 49 84 q29 45 62 78q41 41 69 57q39 23 78 23q35 0 68 -17q29 -14 57 -36q4 -4 21.5 -18.5t27.5 -20.5q27 -16 47 -17q39 0 76 31q39 33 74 88l53 -25q-18 -33 -49 -81q-29 -43 -59 -78q-31 -33 -72 -58q-39 -23 -78 -22q-37 0 -61 16l-23 15q-23 14 -33 22t-27.5 20.5t-23.5 16.5 q-23 16 -55 16q-37 0 -72 -30q-37 -35 -78 -86z" />
<glyph unicode="&#x169;" horiz-adv-x="1046" d="M35 829q10 4 39.5 18.5t48.5 20.5l88 33l74 25q37 10 47 10q29 0 39 -18q10 -20 10 -66q0 -29 -6 -76q-2 -20 -17 -102q-8 -55 -18 -114.5t-18 -115.5q-14 -82 -17 -102q-6 -47 -6 -78q0 -76 20 -121q18 -39 52 -39q18 0 49 18.5t69 57.5q45 45 86 103q57 80 97 153 q2 14 7 42t7 42q10 51 14 82q8 53 11 76q4 45 4 61q0 29 -2 37q-4 16 -8 21q-6 6 -10.5 8t-16.5 2q-4 0 -25 -4q-16 -4 -28 -8l-37 -13l-17 47l40 18.5t46 20.5l86 33q43 16 70 25q35 10 47 10q28 0 37 -18q8 -16 8 -66q0 -28 -6 -74q-10 -78 -14 -100l-19 -111l-18 -112 q-4 -20 -14 -103q-6 -46 -7 -80q0 -92 12.5 -133t39.5 -41q18 0 51 8q31 8 61 21l15 -45q-78 -53 -143.5 -88t-104.5 -35q-23 0 -41 16q-20 16 -34.5 53.5t-25.5 96.5q-5 34 -5 84q0 24 1 57q-45 -76 -84 -123q-55 -68 -94 -98q-57 -47 -98 -63q-55 -23 -103 -23 q-23 0 -51 16q-27 14 -51 45q-23 29 -39 78t-16 107q0 31 6 74q2 8 5 41.5t7 54.5q4 23 9.5 49.5t9.5 56.5l16 103q2 14 14 90q4 27 4 65q0 29 -2 37q-4 16 -8 21q-2 2 -14 8q-4 2 -17 2q-4 0 -24 -4q-25 -4 -35 -8q-12 -4 -41 -13zM280 1104q18 33 50 82q23 37 61 78 q37 41 70 59q39 23 77 23q37 0 68 -19q43 -27 57 -37l49 -37q23 -16 48 -16q39 0 75 31q39 33 74 88l53 -25q-18 -33 -49 -82q-33 -51 -59 -78q-37 -37 -72 -57q-39 -23 -78 -22q-33 0 -61 16q-28 15 -55 37q-23 18 -54 37q-27 16 -55 16q-39 0 -72 -31q-31 -27 -75 -86z " />
<glyph unicode="&#x16a;" horiz-adv-x="1239" d="M166 1206l6 54h434l-8 -54q-70 -16 -98 -30q-37 -18 -39 -31l-88 -635q-6 -55 -6 -57q0 -10 -1 -28.5t-1 -27.5q0 -66 16 -125q16 -57 49 -96q31 -37 82 -59q47 -20 113 -21q65 0 116 31q57 33 95 82q43 57 65 117q27 72 35 143l92 676q3 12 -24 31q-20 14 -93 30l7 54 h385l-9 -54q-72 -16 -96 -30q-33 -18 -35 -31l-90 -633q-18 -132 -61 -233q-41 -98 -111 -170q-63 -68 -151 -105q-82 -35 -185 -35q-82 0 -151 25q-71 25 -123 74q-53 49 -80 118q-29 74 -29 162q0 59 8 115l99 682q2 12 -29 31q-22 14 -94 30zM460 1470q2 4 5.5 12t5.5 13 q4 10 16 30l14 29q2 8 15 25h600l20 -27q0 -2 -10 -27q-8 -14 -16 -30l-17 -29q-4 -4 -7 -12.5t-5 -10.5h-600z" />
<glyph unicode="&#x16b;" horiz-adv-x="1046" d="M35 829q10 4 39.5 18.5t48.5 20.5l88 33l74 25q37 10 47 10q29 0 39 -18q10 -20 10 -66q0 -29 -6 -76q-2 -20 -17 -102q-8 -55 -18 -114.5t-18 -115.5q-14 -82 -17 -102q-6 -47 -6 -78q0 -76 20 -121q18 -39 52 -39q18 0 49 18.5t69 57.5q45 45 86 103q57 80 97 153 q2 14 7 42t7 42q10 51 14 82q8 53 11 76q4 45 4 61q0 29 -2 37q-4 16 -8 21q-6 6 -10.5 8t-16.5 2q-4 0 -25 -4q-16 -4 -28 -8l-37 -13l-17 47l40 18.5t46 20.5l86 33q43 16 70 25q35 10 47 10q28 0 37 -18q8 -16 8 -66q0 -28 -6 -74q-10 -78 -14 -100l-19 -111l-18 -112 q-4 -20 -14 -103q-6 -46 -7 -80q0 -92 12.5 -133t39.5 -41q18 0 51 8q31 8 61 21l15 -45q-78 -53 -143.5 -88t-104.5 -35q-23 0 -41 16q-20 16 -34.5 53.5t-25.5 96.5q-5 34 -5 84q0 24 1 57q-45 -76 -84 -123q-55 -68 -94 -98q-57 -47 -98 -63q-55 -23 -103 -23 q-23 0 -51 16q-27 14 -51 45q-23 29 -39 78t-16 107q0 31 6 74q2 8 5 41.5t7 54.5q4 23 9.5 49.5t9.5 56.5l16 103q2 14 14 90q4 27 4 65q0 29 -2 37q-4 16 -8 21q-2 2 -14 8q-4 2 -17 2q-4 0 -24 -4q-25 -4 -35 -8q-12 -4 -41 -13zM299 1184q2 4 5 12t5 12q8 20 14 31 l17 29q6 15 12 24h600l20 -26q-4 -16 -10 -27l-14 -31l-17 -28l-14 -23h-600z" />
<glyph unicode="&#x16c;" horiz-adv-x="1239" d="M166 1206l6 54h434l-8 -54q-70 -16 -98 -30q-37 -18 -39 -31l-88 -635q-6 -55 -6 -57q0 -10 -1 -28.5t-1 -27.5q0 -66 16 -125q16 -57 49 -96q31 -37 82 -59q47 -20 113 -21q65 0 116 31q57 33 95 82q43 57 65 117q27 72 35 143l92 676q3 12 -24 31q-20 14 -93 30l7 54 h385l-9 -54q-72 -16 -96 -30q-33 -18 -35 -31l-90 -633q-18 -132 -61 -233q-41 -98 -111 -170q-63 -68 -151 -105q-82 -35 -185 -35q-82 0 -151 25q-71 25 -123 74q-53 49 -80 118q-29 74 -29 162q0 59 8 115l99 682q2 12 -29 31q-22 14 -94 30zM508 1654q14 16 30 31 q18 14 31 23q16 -57 39 -91q27 -39 55 -59q37 -27 60 -33q35 -10 61.5 -10t67.5 10q31 8 73 33q37 23 72 59q37 41 64 91q10 -6 26 -23q14 -14 23 -31q-37 -80 -80 -135q-45 -57 -86 -90q-37 -29 -88 -47q-41 -14 -84 -14q-47 0 -84 14q-43 16 -76 49q-35 35 -61 88 q-23 43 -43 135z" />
<glyph unicode="&#x16d;" horiz-adv-x="1046" d="M35 829q10 4 39.5 18.5t48.5 20.5l88 33l74 25q37 10 47 10q29 0 39 -18q10 -20 10 -66q0 -29 -6 -76q-2 -20 -17 -102q-8 -55 -18 -114.5t-18 -115.5q-14 -82 -17 -102q-6 -47 -6 -78q0 -76 20 -121q18 -39 52 -39q18 0 49 18.5t69 57.5q45 45 86 103q57 80 97 153 q2 14 7 42t7 42q10 51 14 82q8 53 11 76q4 45 4 61q0 29 -2 37q-4 16 -8 21q-6 6 -10.5 8t-16.5 2q-4 0 -25 -4q-16 -4 -28 -8l-37 -13l-17 47l40 18.5t46 20.5l86 33q43 16 70 25q35 10 47 10q28 0 37 -18q8 -16 8 -66q0 -28 -6 -74q-10 -78 -14 -100l-19 -111l-18 -112 q-4 -20 -14 -103q-6 -46 -7 -80q0 -92 12.5 -133t39.5 -41q18 0 51 8q31 8 61 21l15 -45q-78 -53 -143.5 -88t-104.5 -35q-23 0 -41 16q-20 16 -34.5 53.5t-25.5 96.5q-5 34 -5 84q0 24 1 57q-45 -76 -84 -123q-55 -68 -94 -98q-57 -47 -98 -63q-55 -23 -103 -23 q-23 0 -51 16q-27 14 -51 45q-23 29 -39 78t-16 107q0 31 6 74q2 8 5 41.5t7 54.5q4 23 9.5 49.5t9.5 56.5l16 103q2 14 14 90q4 27 4 65q0 29 -2 37q-4 16 -8 21q-2 2 -14 8q-4 2 -17 2q-4 0 -24 -4q-25 -4 -35 -8q-12 -4 -41 -13zM340 1335q14 16 30 31q18 14 31 23 q16 -57 39 -91q27 -39 55 -59q37 -27 60 -33q35 -10 61.5 -10t67.5 10q31 8 73 33q37 23 72 59q37 41 64 91q10 -6 26 -23q14 -14 23 -31q-37 -80 -80 -135q-45 -57 -86 -90q-37 -29 -88 -47q-41 -14 -84 -14q-47 0 -84 14q-43 16 -76 49q-35 35 -61 88q-23 43 -43 135z" />
<glyph unicode="&#x16e;" horiz-adv-x="1239" d="M166 1206l6 54h434l-8 -54q-70 -16 -98 -30q-37 -18 -39 -31l-88 -635q-6 -55 -6 -57q0 -10 -1 -28.5t-1 -27.5q0 -66 16 -125q16 -57 49 -96q31 -37 82 -59q47 -20 113 -21q65 0 116 31q57 33 95 82q43 57 65 117q27 72 35 143l92 676q3 12 -24 31q-20 14 -93 30l7 54 h385l-9 -54q-72 -16 -96 -30q-33 -18 -35 -31l-90 -633q-18 -132 -61 -233q-41 -98 -111 -170q-63 -68 -151 -105q-82 -35 -185 -35q-82 0 -151 25q-71 25 -123 74q-53 49 -80 118q-29 74 -29 162q0 59 8 115l99 682q2 12 -29 31q-22 14 -94 30zM610 1474q0 49 19 94 q18 46 49 86q29 39 74 64q43 25 92 24q25 0 51 -10q25 -10 41 -29q15 -18 24 -43q10 -27 11 -55q0 -41 -19 -88q-16 -41 -49 -84q-29 -39 -74 -63q-43 -25 -92 -25q-27 0 -51 10q-27 12 -41 29q-16 20 -25 41q-10 26 -10 49zM708 1517q0 -33 17 -59q16 -25 45 -25 q23 0 41 12q20 12 33 33q12 18 18 43q8 33 8 47q0 37 -14 60q-15 25 -43 24q-27 0 -45 -12q-23 -14 -33 -31q-16 -23 -20 -43q-7 -24 -7 -49z" />
<glyph unicode="&#x16f;" horiz-adv-x="1046" d="M35 829q10 4 39.5 18.5t48.5 20.5l88 33l74 25q37 10 47 10q29 0 39 -18q10 -20 10 -66q0 -29 -6 -76q-2 -20 -17 -102q-8 -55 -18 -114.5t-18 -115.5q-14 -82 -17 -102q-6 -47 -6 -78q0 -76 20 -121q18 -39 52 -39q18 0 49 18.5t69 57.5q45 45 86 103q57 80 97 153 q2 14 7 42t7 42q10 51 14 82q8 53 11 76q4 45 4 61q0 29 -2 37q-4 16 -8 21q-6 6 -10.5 8t-16.5 2q-4 0 -25 -4q-16 -4 -28 -8l-37 -13l-17 47l40 18.5t46 20.5l86 33q43 16 70 25q35 10 47 10q28 0 37 -18q8 -16 8 -66q0 -28 -6 -74q-10 -78 -14 -100l-19 -111l-18 -112 q-4 -20 -14 -103q-6 -46 -7 -80q0 -92 12.5 -133t39.5 -41q18 0 51 8q31 8 61 21l15 -45q-78 -53 -143.5 -88t-104.5 -35q-23 0 -41 16q-20 16 -34.5 53.5t-25.5 96.5q-5 34 -5 84q0 24 1 57q-45 -76 -84 -123q-55 -68 -94 -98q-57 -47 -98 -63q-55 -23 -103 -23 q-23 0 -51 16q-27 14 -51 45q-23 29 -39 78t-16 107q0 31 6 74q2 8 5 41.5t7 54.5q4 23 9.5 49.5t9.5 56.5l16 103q2 14 14 90q4 27 4 65q0 29 -2 37q-4 16 -8 21q-2 2 -14 8q-4 2 -17 2q-4 0 -24 -4q-25 -4 -35 -8q-12 -4 -41 -13zM444 1155q0 49 19 94q18 46 49 86 q29 39 74 64q43 25 92 24q25 0 51 -10q25 -10 41 -29q15 -18 24 -43q10 -27 11 -55q0 -41 -19 -88q-16 -41 -49 -84q-29 -39 -74 -63q-43 -25 -92 -25q-27 0 -51 10q-27 12 -41 29q-16 20 -25 41q-10 26 -10 49zM542 1198q0 -33 17 -59q16 -25 45 -25q23 0 41 12 q20 12 33 33q12 18 18 43q8 33 8 47q0 37 -14 60q-15 25 -43 24q-27 0 -45 -12q-23 -14 -33 -31q-16 -23 -20 -43q-7 -24 -7 -49z" />
<glyph unicode="&#x170;" horiz-adv-x="1239" d="M166 1206l6 54h434l-8 -54q-70 -16 -98 -30q-37 -18 -39 -31l-88 -635q-6 -55 -6 -57q0 -10 -1 -28.5t-1 -27.5q0 -66 16 -125q16 -57 49 -96q31 -37 82 -59q47 -20 113 -21q65 0 116 31q57 33 95 82q43 57 65 117q27 72 35 143l92 676q3 12 -24 31q-20 14 -93 30l7 54 h385l-9 -54q-72 -16 -96 -30q-33 -18 -35 -31l-90 -633q-18 -132 -61 -233q-41 -98 -111 -170q-63 -68 -151 -105q-82 -35 -185 -35q-82 0 -151 25q-71 25 -123 74q-53 49 -80 118q-29 74 -29 162q0 59 8 115l99 682q2 12 -29 31q-22 14 -94 30zM600 1372l203 409 q4 -2 13 -3t13 -1t15.5 -3t17.5 -5q8 -2 16 -3t17 -3q10 -2 22 -6l19 -47l-283 -367q-10 2 -27 10q-10 5 -26 19zM866 1372l207 409q4 -2 12 -3t12.5 -1t15.5 -3t17 -5q8 -2 16.5 -3t16.5 -3q10 -2 22 -6l19 -47l-283 -367q-10 2 -26 10q-15 9 -29 19z" />
<glyph unicode="&#x171;" horiz-adv-x="1046" d="M35 829q10 4 39.5 18.5t48.5 20.5l88 33l74 25q37 10 47 10q29 0 39 -18q10 -20 10 -66q0 -29 -6 -76q-2 -20 -17 -102q-8 -55 -18 -114.5t-18 -115.5q-14 -82 -17 -102q-6 -47 -6 -78q0 -76 20 -121q18 -39 52 -39q18 0 49 18.5t69 57.5q45 45 86 103q57 80 97 153 q2 14 7 42t7 42q10 51 14 82q8 53 11 76q4 45 4 61q0 29 -2 37q-4 16 -8 21q-6 6 -10.5 8t-16.5 2q-4 0 -25 -4q-16 -4 -28 -8l-37 -13l-17 47l40 18.5t46 20.5l86 33q43 16 70 25q35 10 47 10q28 0 37 -18q8 -16 8 -66q0 -28 -6 -74q-10 -78 -14 -100l-19 -111l-18 -112 q-4 -20 -14 -103q-6 -46 -7 -80q0 -92 12.5 -133t39.5 -41q18 0 51 8q31 8 61 21l15 -45q-78 -53 -143.5 -88t-104.5 -35q-23 0 -41 16q-20 16 -34.5 53.5t-25.5 96.5q-5 34 -5 84q0 24 1 57q-45 -76 -84 -123q-55 -68 -94 -98q-57 -47 -98 -63q-55 -23 -103 -23 q-23 0 -51 16q-27 14 -51 45q-23 29 -39 78t-16 107q0 31 6 74q2 8 5 41.5t7 54.5q4 23 9.5 49.5t9.5 56.5l16 103q2 14 14 90q4 27 4 65q0 29 -2 37q-4 16 -8 21q-2 2 -14 8q-4 2 -17 2q-4 0 -24 -4q-25 -4 -35 -8q-12 -4 -41 -13zM432 1053l203 409q4 -2 13 -3t13 -1 t15.5 -3t17.5 -5q8 -2 16 -3t17 -3q10 -2 22 -6l19 -47l-283 -367q-10 2 -27 10q-10 5 -26 19zM698 1053l207 409q4 -2 12 -3t12.5 -1t15.5 -3t17 -5q8 -2 16.5 -3t16.5 -3q10 -2 22 -6l19 -47l-283 -367q-10 2 -26 10q-15 9 -29 19z" />
<glyph unicode="&#x174;" horiz-adv-x="1576" d="M125 1206l6 54h412l-6 -54q-41 -6 -72 -12q-23 -4 -41 -16q-15 -9 -18 -19q-2 -6 -3 -22l58 -838l422 961h67l185 -961l276 846q4 12 -4 20q-10 10 -27 17q-18 6 -43 12q-16 4 -57 12l8 54h393l-6 -54q-80 -18 -104 -26q-35 -10 -45 -35l-361 -1086q-12 -29 -24 -39 q-20 -16 -39 -24q-29 -12 -43 -16q-6 -2 -18.5 -5.5t-16.5 -5.5l-172 955l-383 -865q-10 -23 -29 -39q-20 -16 -43 -26q-29 -12 -43 -17q-10 -2 -37 -8l-75 1168q-4 25 -29 41q-27 16 -88 28zM641 1392l281 303h100l199 -303l-14.5 -18.5t-10.5 -12.5q-4 -4 -26 -18 l-222 195l-270 -195q-9 6 -18 18q-13 17 -19 31z" />
<glyph unicode="&#x175;" horiz-adv-x="1320" d="M0 827l84 41l76 33l63 25q31 10 41 10q27 0 41 -33q12 -29 33 -104q6 -20 12 -74q2 -18 17 -107q6 -45 14 -120q8 -63 14 -123q8 -82 11 -107q0 -12 8 -71q25 49 78 165q37 82 73 177q25 66 53 168q20 80 25 143q8 8 37 28.5t43 28.5l41 21q16 8 31 8q4 0 10 -16 q6 -15 12 -43l14 -64q12 -53 17 -72q8 -37 14 -73.5t12 -67.5q2 -10 17 -100l18 -111q6 -41 15 -108q2 -20 7 -55.5t7 -45.5q55 100 113 219q39 80 71 168q20 53 37 125q10 43 10 86q0 20 -14 33q-16 12 -41 12q-6 0 -35 -4q-14 -2 -43 -10l-20 47q29 18 69 37q34 15 62 25 q37 12 51 14q29 4 35 4q20 0 31 -2q18 -4 26 -10q12 -9 19 -25q8 -20 8 -39q0 -28 -6 -61q-8 -45 -21 -82q-23 -68 -39 -111q-14 -35 -65 -147q-35 -76 -96 -195l-132 -248q-9 -6 -24 -12l-33 -16l-33 -17q-15 -9 -24 -12l-37 33l-12.5 90l-12.5 90q-18 135 -26 188 q-29 164 -29 166q-18 92 -27 123q-4 -25 -14 -59q-23 -76 -29 -90q-29 -78 -43 -111l-53 -121l-59 -125q-31 -63 -66 -118q-2 -2 -8 -6.5t-16 -8.5l-37 -18q-10 -4 -18.5 -8t-18.5 -11l-29 -14l-33 33q0 6 -6 52t-8 73l-16 139q-4 35 -7 69.5t-8 71.5q-2 27 -7 74t-7 61 q-4 49 -16 111q-2 14 -7.5 42l-7.5 38q-6 31 -14 43q-9 15 -18 25q-8 8 -21 12q-6 2 -18 2q-4 0 -24.5 -4t-33 -8.5t-41.5 -12.5zM491 1073l289 375h106l189 -375q-14 -20 -25 -31q-2 -2 -28 -18l-213 252l-279 -252q-9 6 -18 18q-17 23 -21 31z" />
<glyph unicode="&#x176;" horiz-adv-x="1150" d="M109 1237q27 6 61 12l68 13q47 8 63 10q41 4 47 4q16 0 33 -12q25 -18 31 -31q18 -31 43 -78l45 -92q2 -6 19.5 -44t25.5 -58q8 -23 19 -48.5t22 -54.5q6 -16 32 -96q14 -43 25 -84l299 463q18 27 -4 43q-18 12 -90 22l6 54h369l-6 -54q-53 -10 -99 -26q-31 -10 -51 -39 l-387 -606l-55 -410q0 -8 4 -14q6 -8 22 -19q23 -14 43 -20q23 -8 70 -19l-8 -53h-471l8 53q35 8 72 19q20 6 49 20q20 10 26 17q10 10 11 16l57 420l-49 157q-14 47 -64 166q-37 92 -69 154q-57 109 -66 123q-2 6 -20 22q-8 8 -27 13q-31 6 -39 6q-35 0 -59 -2zM420 1392 l281 303h100l199 -303l-14.5 -18.5t-10.5 -12.5q-4 -4 -26 -18l-222 195l-270 -195q-9 6 -18 18q-13 17 -19 31z" />
<glyph unicode="&#x177;" d="M-186 -436q0 12 12 37q16 33 29 49l36 47q20 25 31 29q45 -35 84 -48q31 -10 74 -10q72 0 143 72q78 78 152 205q-4 31 -27 131q-4 16 -14 68.5t-17 80.5l-19 76l-19 76q-16 68 -37 143q-20 72 -37 121q-23 63 -33 84q-18 45 -39 66q-16 16 -33 16q-6 0 -26.5 -4 t-30.5 -8q-12 -4 -41 -13l-14 47l84 39l36.5 17.5l38.5 17.5q34 15 62 25q25 8 41 8q29 0 47 -29q12 -16 41 -98q27 -74 41 -123q22 -71 43 -154l43 -170l41 -176q16 31 30.5 63l28.5 60q31 61 58 121l51 115q10 20 23.5 54l17.5 44q14 35 26 78q10 37 11 49q0 49 -54 53 q-14 2 -36 -4q-27 -8 -52 -18l-20 47q72 43 137 65q68 23 104 23q23 0 33 -2q18 -4 27 -10q12 -9 18 -25q6 -14 6 -39q0 -39 -20 -94q-27 -74 -64 -152l-110 -225l-160 -307q-82 -156 -133 -238q-70 -111 -137 -184q-70 -74 -148 -119q-74 -41 -161 -41q-33 0 -64 6 q-29 6 -53.5 16.5t-36.5 20.5q-14 13 -14 21zM297 1073l289 375h106l189 -375q-14 -20 -25 -31q-2 -2 -28 -18l-213 252l-279 -252q-9 6 -18 18q-17 23 -21 31z" />
<glyph unicode="&#x178;" horiz-adv-x="1150" d="M109 1237q27 6 61 12l68 13q47 8 63 10q41 4 47 4q16 0 33 -12q25 -18 31 -31q18 -31 43 -78l45 -92q2 -6 19.5 -44t25.5 -58q8 -23 19 -48.5t22 -54.5q6 -16 32 -96q14 -43 25 -84l299 463q18 27 -4 43q-18 12 -90 22l6 54h369l-6 -54q-53 -10 -99 -26q-31 -10 -51 -39 l-387 -606l-55 -410q0 -8 4 -14q6 -8 22 -19q23 -14 43 -20q23 -8 70 -19l-8 -53h-471l8 53q35 8 72 19q20 6 49 20q20 10 26 17q10 10 11 16l57 420l-49 157q-14 47 -64 166q-37 92 -69 154q-57 109 -66 123q-2 6 -20 22q-8 8 -27 13q-31 6 -39 6q-35 0 -59 -2zM428 1464 q0 20 11 55q10 33 26.5 55.5t43 39t56.5 16.5q37 0 56 -23q20 -25 20 -57q0 -25 -10 -60q-8 -29 -27 -53q-16 -23 -43 -39q-23 -14 -57 -14q-39 0 -57.5 20.5t-18.5 59.5zM805 1464q0 20 10 55q10 33 26.5 55.5t43.5 39t57 16.5q33 0 56 -23q20 -20 20 -57q0 -33 -8 -60 q-8 -25 -29 -53q-16 -23 -43 -39q-23 -14 -57 -14q-37 0 -55 20q-21 25 -21 60z" />
</font>
</defs>
</svg>
