<?xml version="1.0" standalone="no"?>
<!DOCTYPE svg PUBLIC "-//W3C//DTD SVG 1.1//EN" "http://www.w3.org/Graphics/SVG/1.1/DTD/svg11.dtd" >
<svg xmlns="http://www.w3.org/2000/svg">
<metadata>
This is a custom SVG webfont generated by Font Squirrel.
Copyright   : Copyright c SIL International 20032008
Designer    : J Victor Gaultney and Annie Olsen
Foundry     : SIL International
Foundry URL : httpscriptssilorg
</metadata>
<defs>
<font id="webfontEtmYwCcg" horiz-adv-x="1005" >
<font-face units-per-em="2048" ascent="1638" descent="-410" />
<missing-glyph horiz-adv-x="516" />
<glyph unicode=" "  horiz-adv-x="516" />
<glyph unicode="&#x09;" horiz-adv-x="516" />
<glyph unicode="&#xa0;" horiz-adv-x="516" />
<glyph unicode="!" horiz-adv-x="499" d="M41 88q0 37 14 68q18 41 39 63q29 31 64 49q37 18 84 19q66 0 98.5 -33t32.5 -82q0 -35 -13 -72q-12 -35 -36 -63q-29 -31 -64 -49q-37 -18 -86 -19q-70 0 -100 33q-33 37 -33 86zM178 391l45 924l58 28l75 37q20 10 39 17.5t35 15.5q39 18 55 23l45 -35l-215 -981 q-16 -10 -24 -14l-14.5 -7.5l-14.5 -7.5l-31 -12q-8 -4 -16 -5t-12 -3z" />
<glyph unicode="&#x22;" horiz-adv-x="921" d="M211 1341q6 2 27 13q6 2 13 5t16 6t16 5l53 19l53 18l45 14q4 2 10.5 3t10.5 3.5t6 2.5l47 -31l-166 -549q-12 -8 -23 -10q-4 0 -16 -2t-16 -4q-20 -4 -31 -5q-6 0 -15.5 -1t-13.5 -1zM600 1341q12 4 29 13q6 4 23.5 9t21.5 7q10 4 16 6l15.5 5t19.5 8l55 18l43 14 q4 2 10.5 3t10.5 3.5t6 2.5l47 -31l-166 -549q-12 -8 -22 -10l-31 -6q-20 -4 -33 -5q-6 0 -14 -1t-13 -1z" />
<glyph unicode="#" horiz-adv-x="966" d="M37 479q4 12 12 29l19 37l18 37q8 16 16 28h174l89 215h-158l-21 25q2 8 13 29l18 39l21 36q10 20 14 27h174l109 270q6 4 28 13q27 8 35 10l35 8q10 2 26 10l23 -22l-117 -289h158l108 270q2 2 29 13q18 8 35 10l35 8q8 2 26 10l25 -22l-117 -289h144l20 -25 q-3 -12 -12 -30l-19 -37l-20 -37q-10 -20 -14 -27h-162l-86 -215h143l16 -26q-8 -25 -10 -29l-18 -37l-19 -37q-2 -6 -7 -14t-7 -12h-162l-114 -285q-9 -6 -25 -12q-10 -4 -35 -13q-10 -2 -18 -5t-19 -5q-6 -2 -30 -8l-23 20l125 308h-158l-114 -285q-6 -4 -27 -12 q-10 -4 -35 -13l-35 -10q-6 -2 -30 -8l-23 20l125 308h-160zM416 610h157l89 215h-158z" />
<glyph unicode="$" horiz-adv-x="966" d="M-6 137q0 10 6 33q6 18 20 49q4 6 11.5 24.5t13.5 28.5q15 28 31 50q14 23 28 34q14 14 24.5 14.5t18.5 -14.5l10 -13q9 -13 13 -24q8 -16 29 -53q12 -20 37 -53q23 -29 51 -51q25 -18 65 -33l62 436q-4 0 -10.5 4t-8.5 4q-16 6 -20 9q-68 25 -113 51q-55 31 -86 61 q-35 35 -53 78q-20 47 -21 102q0 53 22.5 110.5t70 105t124.5 84.5q68 33 189 49l16 114q41 25 49 33q16 14 50 27l30 -33l-18 -133h4q29 0 86 -8q45 -6 84 -19q33 -10 74 -28q23 -10 59 -31q2 -2 0 -21q-2 -12 -14 -45l-11.5 -28.5t-11.5 -26.5q-4 -12 -13 -29.5l-13 -25.5 q-10 -25 -24.5 -45.5t-18.5 -22.5l-68 10q-6 33 -18 60q-10 25 -31 51q-14 20 -43 41q-27 20 -60 29l-49 -351q63 -25 129 -59q53 -29 99 -70q37 -35 61 -86q23 -49 23 -108q0 -78 -25 -149.5t-78 -131t-129 -100.5q-70 -37 -186 -57l-17 -107q-23 -18 -47 -31 q-29 -14 -53 -20l-31 31l17 116h-8q-45 0 -107 17q-51 14 -106 41q-47 23 -82 55q-33 30 -33 55zM330 950q0 -31 4 -45q6 -20 18 -39q10 -16 35 -37q20 -16 59 -36l43 307q-33 -6 -65 -19q-25 -10 -49 -34q-20 -20 -32.5 -45t-12.5 -52zM479 125q90 16 131 70q43 55 43 147 q0 51 -28.5 92t-89.5 76z" />
<glyph unicode="%" horiz-adv-x="1409" d="M70 801q0 78 24 157q25 78 78 142q51 61 125 100q72 39 170 39q55 0 96 -16q43 -16 78 -49q33 -31 51 -76q20 -51 21 -103q0 -72 -27 -157q-25 -80 -72 -141.5t-122 -102.5q-72 -39 -166 -39q-61 0 -105 20q-49 23 -80 54q-35 35 -53 78t-18 94zM106 0l1031 1202l30 10 q4 0 18.5 3.5l22.5 5.5l41 8q14 2 31 6l20 -29l-1028 -1204q-14 -8 -30 -10q-4 0 -18.5 -3t-22.5 -5q-10 -2 -21.5 -3t-21.5 -4l-33 -8zM287 776q0 -82 16 -112q18 -35 59 -35q35 0 62 39t45 96q16 53 27 125q8 59 8 125q0 41 -6 71.5t-15 47.5q-6 12 -22 24q-10 8 -29 8 q-33 0 -53.5 -20.5t-36.5 -57.5q-18 -41 -27 -77q-2 -10 -6 -27.5t-7 -32t-5 -26.5q-4 -29 -8 -82q-2 -27 -2 -66zM694 213q0 72 27 158q25 78 78 141q51 61 125 100q72 39 170 39q55 0 96 -16q43 -16 78 -49q33 -31 51 -76q18 -47 18 -102q0 -78 -24 -158q-23 -74 -74 -141 q-47 -63 -121 -103q-72 -39 -168 -39q-59 0 -102 21q-46 22 -80 55q-35 35 -53 78q-21 47 -21 92zM911 190q0 -80 19 -112q18 -35 57 -35t64 37q27 39 45 96q16 53 26 125q8 59 8 125q0 41 -6 71.5t-14 47t-23 26.5q-10 8 -28 9q-31 0 -53 -23q-23 -25 -39 -57 q-18 -41 -27 -78q-12 -57 -16 -86t-8.5 -82.5t-4.5 -63.5z" />
<glyph unicode="&#x26;" horiz-adv-x="1325" d="M68 352q12 96 88 205q72 102 221 211q-22 77 -31 154q-8 70 2 151q12 84 51 150q43 72 101 120q59 51 133 78q76 29 153 29q76 0 125 -20q51 -20 82 -56q27 -31 41 -78q10 -39 4 -92q-6 -47 -43 -108q-35 -57 -86 -108.5t-112 -100.5q-57 -45 -121 -84l-17 -12 q45 -106 113 -216q59 -94 139 -198q16 27 31 63q8 20 16 62q6 41 0 73q-4 29 -24 56q-14 20 -39 32.5t-51 12.5l-25 37l19 18q16 16 26 25q4 2 13.5 11t15.5 13q23 14 25 15h458l25 -47q-6 -6 -31 -35q-16 -20 -35 -41q-12 -14 -35 -37q-20 -20 -28 -27q-25 14 -68 33 q-37 15 -67 18q18 -29 18 -55q0 -20 -4 -61q-10 -66 -45 -137.5t-98 -143.5q14 -14 26 -29l27 -26q47 -47 98 -60q52 -12 98 0l7 -81q-43 -18 -93 -37q-51 -18 -94 -31q-74 -20 -78 -21l-45 -8q-20 0 -65 29q-41 27 -94 80q-82 -51 -170 -78q-98 -31 -185 -31 q-201 0 -301 97q-96 93 -71 286zM342 373q-8 -68 4 -117q12 -45 41 -78q25 -29 64 -41q37 -12 75 -12q55 0 90 12q53 18 89 39q-86 104 -144 195q-70 111 -125 231q-45 -57 -65 -110q-19 -47 -29 -119zM594 1026q6 -59 20 -108q43 27 72 55q20 20 49 65q18 31 33 68 q2 8 14 65q6 31 2 62q-2 25 -16 45q-12 18 -26.5 26.5t-32.5 8.5q-25 0 -41 -15q-18 -14 -33 -38q-12 -20 -23 -58q-12 -45 -16 -72q-8 -59 -2 -104z" />
<glyph unicode="'" horiz-adv-x="499" d="M211 1341q6 2 27 13q6 2 13 5t16 6t16 5l53 19l53 18l45 14q4 2 10.5 3t10.5 3.5t6 2.5l47 -31l-166 -549q-12 -8 -23 -10q-4 0 -16 -2t-16 -4q-20 -4 -31 -5q-6 0 -15.5 -1t-13.5 -1z" />
<glyph unicode="(" horiz-adv-x="638" d="M92 344q-12 143 10 307q20 160 78 312q55 150 133 268q80 123 183 219q92 86 223 154l43 -84q-72 -63 -125 -136q-61 -82 -109 -180q-49 -104 -86 -233q-39 -135 -59 -289q-25 -164 -27 -276q-4 -145 11 -246q16 -119 51 -213t98 -176l-67 -86q-96 61 -177 163 q-74 94 -121 223.5t-59 272.5z" />
<glyph unicode=")" horiz-adv-x="638" d="M-100 -229q76 70 125 133q59 78 108 182q51 109 86 231q39 135 60 289q25 164 26 279q4 145 -10 245q-14 111 -53 213q-37 100 -97 177l68 84q98 -63 176 -162q72 -92 121 -225q47 -129 59 -273q12 -141 -10 -305q-20 -160 -78 -311q-55 -147 -135 -271 q-76 -119 -182 -217q-98 -92 -221 -155z" />
<glyph unicode="*" horiz-adv-x="745" d="M-6 977l20 59l275 97l-230 84q0 6 3.5 15t7.5 23.5l8 29.5t8 26q2 8 6 27.5t8 27.5q2 6 5.5 15.5t5.5 14.5t4 9l55 18l178 -194l-12 264q27 14 35 16l51 21q18 8 51 20q8 2 37 11l37 -41l-94 -289l213 178q2 -2 6 -5t10 -8t10 -10l35 -34q4 -4 17.5 -16.5t19.5 -18.5 q14 -16 20 -27l-18 -59l-272 -94l227 -86l-4 -15q-4 -14 -6 -24q-6 -27 -15 -56l-16 -55q-9 -25 -12 -37l-58 -18l-180 192l16 -264q-4 -2 -36 -14q-10 -4 -23.5 -10.5t-28.5 -12.5q-10 -4 -28.5 -10l-24.5 -8q-16 -6 -35 -12l-37 41l95 288l-213 -178q-2 2 -6.5 5 t-10.5 8.5t-10 9.5q-18 16 -36.5 34.5l-35.5 36.5q-4 6 -12 14.5z" />
<glyph unicode="+" horiz-adv-x="833" d="M55 518q4 14 13 29l16 33q10 18 18 34q2 4 7.5 12.5t7.5 12.5h254l37 266q2 0 10 4l12 6q8 4 16.5 6.5t16.5 4.5q4 2 16.5 6t16.5 6l9 3t5 1t4 1t6 1l27 -33l-37 -272h248l26 -33q-2 -8 -12 -28q-2 -6 -8 -17.5t-10 -17.5t-7.5 -12.5t-5.5 -9.5t-6 -11q-9 -15 -12 -25 h-236l-34 -264q-2 0 -25 -10l-31 -12q-4 -2 -16 -6.5t-16 -6.5q-6 -2 -15.5 -4t-11.5 -2l-27 33l37 272h-266z" />
<glyph unicode="," horiz-adv-x="499" d="M-10 -340q49 53 67 82q33 51 47 82q20 43 29 78q10 41 10 67q0 12 -8 37q-8 23 -20 35q-16 16 -35 25q-22 9 -49 6l-4 88q4 2 34 20q14 8 51.5 24.5t57.5 24.5l61 21q12 4 54 14q16 4 41 4q41 -27 55 -51q18 -33 18 -94q0 -45 -16 -98.5t-43 -100.5q-28 -49 -61 -98 q-29 -41 -74 -90q-43 -47 -78 -76q-40 -34 -74 -55z" />
<glyph unicode="-" horiz-adv-x="690" d="M23 469q2 10 12 27l8 16t10 16l19 31l14 27h535l28 -35q-2 -10 -12 -27q-4 -8 -8 -17l-8 -18l-19 -30q-9 -15 -12 -25h-539z" />
<glyph unicode="." horiz-adv-x="499" d="M41 88q0 37 14 68q18 41 39 63q29 31 64 49q37 18 84 19q66 0 98.5 -33t32.5 -82q0 -35 -13 -72q-12 -35 -36 -63q-29 -31 -64 -49q-37 -18 -86 -19q-70 0 -100 33q-33 37 -33 86z" />
<glyph unicode="/" horiz-adv-x="909" d="M-111 -301l895 1831q16 12 39 20l56 19q37 12 53 18q23 8 41 12l41 -32l-893 -1831q-18 -12 -37 -19q-6 -2 -25.5 -9t-32 -11t-27.5 -10t-32 -11q-14 -4 -39 -12z" />
<glyph unicode="0" horiz-adv-x="966" d="M27 422q0 61 8 156q6 61 22 133q12 51 41 123q23 57 60 127q27 49 75 106q47 53 99 88q61 41 117 59q61 20 135 21q70 0 131 -31q66 -33 110 -90q49 -63 76 -141q27 -80 27 -189q0 -80 -6 -151q-4 -47 -25 -137q-16 -76 -41 -131q-25 -57 -65 -129q-37 -59 -76 -105 q-37 -41 -97 -84q-51 -35 -112 -57q-59 -20 -131 -21q-77 0 -142 37q-61 35 -110 100q-47 63 -72 146q-24 84 -24 170zM295 381q0 -147 30.5 -211t102.5 -64q43 0 76 33q37 37 59 88q29 66 45 129q14 55 29 152q12 82 18 158q4 53 4 149q0 84 -8 133q-10 57 -26 88 q-20 35 -41 49q-23 14 -52 15q-51 0 -88 -41q-39 -43 -65 -105q-29 -66 -43 -143.5t-25 -161.5q-12 -109 -14 -151q-2 -47 -2 -117z" />
<glyph unicode="1" horiz-adv-x="966" d="M72 0l12 92q86 10 125 21q49 12 80 24q35 14 43 23q14 14 16 22l98 717q4 27 5 64q0 20 -9 34q-8 8 -18 11q-16 4 -41 4q-14 0 -72 -8q-51 -8 -106 -21l-15 92q47 10 68 17q4 2 92 28l99 33l100 35q27 8 49.5 17t36.5 16q57 20 65 24l37 -45l-139 -1018q-2 -6 8 -20 q10 -12 33 -25q14 -8 68 -22q49 -14 110 -23l-10 -92h-735z" />
<glyph unicode="2" horiz-adv-x="966" d="M-10 74l303 321q125 139 205 248q72 94 114 191q35 76 35 143q0 74 -26 102q-27 31 -82 31q-39 0 -62 -16q-27 -20 -41 -45q-12 -25 -20 -64q-6 -31 -2 -72q-4 -2 -49 -20q-27 -10 -66 -21q-8 -2 -32.5 -9t-37.5 -9q-8 -2 -55 -8l-24 80q6 49 47 106q39 53 104 101 q65 46 148 73q86 29 174 29q49 0 110 -10q49 -8 96 -35q43 -25 68 -64q25 -41 25 -100q0 -41 -13 -84q-16 -57 -37 -94q-33 -57 -73 -113q-37 -47 -117 -139q-94 -106 -168 -180l-227 -226h354q16 0 30.5 8.5t26.5 24.5q10 14 21 33q4 6 9 20.5t7 18.5q20 51 29 104l84 -22 l-68 -377h-774z" />
<glyph unicode="3" horiz-adv-x="966" d="M8 139l60 107q78 -70 145 -96q72 -27 141 -27q43 0 84 18.5t72 55.5q29 33 47 88q18 52 18 116q0 100 -45 146q-47 47 -118 47h-21q-2 0 -8 -1t-8 -1t-8.5 -1t-10.5 -1q-2 0 -22 -4l-6 100q276 68 276 303q0 66 -20 92q-23 29 -64 29q-20 0 -45 -10q-22 -9 -37 -31 q-18 -25 -22 -49q-6 -35 -4 -68q-8 -4 -25.5 -12l-26.5 -12q-20 -10 -65 -27q-34 -12 -68 -18q-45 -8 -57 -9l-25 70q6 49 41 94q41 55 95 95q61 45 132.5 73.5t161.5 28.5q88 0 146 -18q53 -16 90 -54q31 -31 47 -76q14 -41 14 -86q0 -59 -16 -100q-18 -46 -49 -86 q-25 -33 -74 -67q-35 -25 -90 -50q52 -6 92 -30q39 -23 64 -62q29 -43 39 -82q12 -45 12 -96q0 -92 -41 -178q-41 -84 -109 -146q-66 -59 -159 -98q-89 -37 -191 -37q-34 0 -80 13q-51 14 -92 32q-51 25 -92 54q-43 30 -78 71z" />
<glyph unicode="4" horiz-adv-x="966" d="M27 373l551 790l57 19l31.5 12t31.5 10l66 21l31.5 11t23.5 9l37 -45l-98 -719h133l20 -30l-28 -35q-16 -18 -31 -33l-10 -10l-11.5 -11.5l-9.5 -9.5t-13 -11t-13 -11h-58l-26 -187q0 -10 4 -14q10 -10 18 -14q4 -2 37 -15q4 -2 64 -16l-13 -84h-565l10 84q86 18 101 20 q55 12 63 17q29 12 33 16q8 8 8 19l25 174h-435zM256 481h260l66 480z" />
<glyph unicode="5" horiz-adv-x="966" d="M10 133l62 98q74 -53 84 -59q47 -25 75 -35q53 -18 68 -20q23 -4 66 -4q51 0 90 22q45 27 77 68q33 43 52 98q20 66 20 123q0 47 -12 88q-12 43 -37 69.5t-59 43.5q-31 14 -76 14q-80 0 -141.5 -24.5t-112.5 -63.5l-43 33q2 8 8 24.5l11 31.5l10 30l30 106l16.5 61.5 t14.5 57.5q4 16 15.5 56t15.5 61q8 29 13 55.5t11 50.5q10 41 19 86h518q31 0 45 2t35 6q16 2 30 11l33 -39l-33 -45l-47 -54q-8 -10 -20 -23l-25 -26q-27 -27 -35 -32h-411q-12 -59 -15 -64q-4 -18 -9 -34.5t-9 -33.5q-4 -20 -9 -36.5t-9 -28.5t-8.5 -30.5t-6.5 -22.5 q35 20 95 32q68 14 116 15q86 0 154 -29q59 -25 104 -74q39 -41 62 -104q20 -55 20 -117q0 -63 -14 -121q-16 -70 -41 -116q-31 -63 -70 -107q-45 -53 -96 -86q-51 -35 -127 -57q-68 -20 -152 -21q-53 0 -92 11q-55 14 -94 32q-47 23 -88 51q-47 35 -78 70z" />
<glyph unicode="6" horiz-adv-x="966" d="M53 360q0 106 25 211q25 109 69 197q49 96 117 174q72 80 164 145q82 57 207 105q109 41 252 57l12 -98q-115 -20 -207 -66q-94 -45 -153 -102q-61 -59 -107 -135q-43 -74 -67 -160q70 55 120 76q68 27 113 27q66 0 123 -23q51 -20 94 -63q35 -35 59 -99q23 -57 23 -123 q0 -59 -14 -114q-14 -53 -43 -115q-25 -53 -68 -109q-37 -49 -94 -92q-53 -41 -115 -61q-68 -23 -137 -23q-76 0 -145 29q-61 25 -117 80q-51 51 -82 123q-29 65 -29 159zM324 373q0 -74 12 -125q14 -59 29 -84q20 -35 45 -45q29 -12 57 -13q27 0 53 17q23 14 43 45 q18 29 31 63q16 49 22.5 74t10.5 76q4 53 4 72q0 63 -10 94q-12 39 -29 57q-16 20 -41 27q-29 8 -45 8q-33 0 -80 -29q-41 -25 -92 -75q-4 -27 -8 -80q-2 -27 -2 -82z" />
<glyph unicode="7" horiz-adv-x="966" d="M115 868l12 41q8 27 16.5 59.5l18.5 67.5t18 68q16 57 17 59q4 8 8 22.5t6 18.5h768l27 -37l-115 -217l-109 -215l-100 -207l-90 -186l-36.5 -78l-39.5 -84l-55 -127q-18 -12 -49 -24l-35 -11.5t-31 -11.5q-29 -10 -65 -20q-10 -2 -30 -8.5t-28 -8.5l-43 43l125 193 q92 147 109 172l94 158l47.5 83.5l38.5 69.5l86 154l88 164h-424q-10 0 -31 -5q-16 -4 -37 -20q-12 -10 -40 -49q-27 -37 -54 -92z" />
<glyph unicode="8" horiz-adv-x="966" d="M33 250q0 66 26 119q33 63 70 104q43 46 98 86q47 35 115 70q-33 16 -66 41q-29 20 -55 53q-23 29 -39 70q-12 33 -12 96q0 76 35 137q37 63 96 108.5t143 73.5q78 27 170 27q84 0 145.5 -18.5t98.5 -47.5q39 -29 57 -73q18 -43 19 -95q0 -49 -23 -94q-16 -33 -57 -78 q-33 -35 -78 -67q-57 -41 -86 -57q43 -23 78 -50q45 -33 66 -61q27 -37 45 -84q18 -49 18 -113q0 -80 -43 -161.5t-106 -137.5q-70 -61 -156 -94q-88 -35 -180 -35q-98 0 -172 23q-71 22 -117 61q-45 39 -67.5 90.5t-22.5 106.5zM307 274q0 -41 12 -75t31 -56q16 -20 43 -32 q20 -10 51 -11q39 0 72 21q37 25 57 55q23 37 35 78q14 49 15 88q0 41 -15 84q-10 33 -37 61q-20 23 -55 48l-63 38q-41 -41 -58 -63q-29 -41 -45 -72q-18 -35 -31 -78q-12 -40 -12 -86zM418 940q0 -37 12 -61q14 -29 33 -48q14 -14 51 -38q23 -14 61 -33q40 40 68 92 q31 57 31 122.5t-31 100.5t-88 35q-31 0 -53 -14q-27 -16 -43 -39q-18 -25 -31 -56q-10 -26 -10 -61z" />
<glyph unicode="9" horiz-adv-x="966" d="M86 55q127 29 213 70q100 47 158 98q68 61 108 131q43 72 68 168q-55 -49 -117 -78q-66 -31 -135 -30q-72 0 -129 26q-53 25 -88 70q-34 43 -49 98q-16 59 -17 117q0 90 37 182q33 82 105 164q61 70 155 119q88 45 195 45q78 0 145 -23q65 -22 111 -67q47 -47 72 -117 q25 -71 24 -166q0 -170 -53 -325q-51 -150 -159.5 -275t-262.5 -203q-160 -82 -367 -102zM362 770q0 -49 11 -90q8 -31 26 -62q14 -23 35 -33t39 -10q55 0 100 27q39 25 84 72q10 92 11 182q0 80 -9 121q-9 46 -24 74q-16 29 -39 39q-25 10 -49 10q-51 0 -88 -31 q-35 -29 -58 -80q-18 -43 -28 -106q-11 -66 -11 -113z" />
<glyph unicode=":" horiz-adv-x="499" d="M41 88q0 37 14 68q18 41 39 63q29 31 64 49q37 18 84 19q66 0 98.5 -33t32.5 -82q0 -35 -13 -72q-12 -35 -36 -63q-29 -31 -64 -49q-37 -18 -86 -19q-70 0 -100 33q-33 37 -33 86zM133 764q0 37 14 67q16 35 41 64q27 29 62 47q37 18 84 19q68 0 100.5 -33t32.5 -80 q0 -29 -14 -72q-12 -39 -37 -65q-27 -29 -62 -47q-41 -20 -86 -21q-72 0 -102 35q-33 37 -33 86z" />
<glyph unicode=";" horiz-adv-x="499" d="M-10 -340q49 53 67 82q33 51 47 82q20 43 29 78q10 41 10 67q0 12 -8 37q-8 23 -20 35q-16 16 -35 25q-22 9 -49 6l-4 88q4 2 34 20q14 8 51.5 24.5t57.5 24.5l61 21q12 4 54 14q16 4 41 4q41 -27 55 -51q18 -33 18 -94q0 -45 -16 -98.5t-43 -100.5q-28 -49 -61 -98 q-29 -41 -74 -90q-43 -47 -78 -76q-40 -34 -74 -55zM135 764q0 37 15 67q16 35 40 64q27 29 62 47q37 18 84 19q68 0 100.5 -33t32.5 -80q0 -29 -14 -72q-12 -39 -37 -65q-27 -29 -62 -47q-41 -20 -86 -21q-72 0 -102 35q-33 37 -33 86z" />
<glyph unicode="&#x3c;" horiz-adv-x="899" d="M59 524q2 6 6.5 14.5t6.5 16.5q6 16 14 34.5l16 35.5q4 12 13 28l725 275l26 -35l-10 -31l-16 -41l-7.5 -19l-7.5 -20q-2 -6 -7 -16t-5 -12l-491 -185l450 -186l19 -47q-4 -4 -10.5 -9t-14.5 -14l-10 -10t-7.5 -8t-11.5 -10q-2 -2 -32 -27q-20 -16 -31 -22l-588 243z" />
<glyph unicode="=" horiz-adv-x="899" d="M41 369q4 20 10 28q12 20 19 33q10 18 18 35q2 4 14 24h680l27 -32q-2 -8 -12 -29q-2 -6 -8.5 -17.5t-10.5 -17.5q-10 -18 -18 -35q-2 -4 -7 -11l-8 -11h-679zM82 670q4 16 10 26.5l19 34.5l7 13.5t5 8.5t6 11l14 27h680l27 -35q-2 -8 -12 -29q-2 -6 -8.5 -17.5 t-10.5 -17.5t-9 -15t-9 -18q-14 -23 -15 -24h-680z" />
<glyph unicode="&#x3e;" horiz-adv-x="899" d="M25 270l10 31l16 41q8 20 17 39q4 8 7 16.5t5 12.5l489 184l-450 186l-19 47q4 4 11.5 9.5t15.5 13.5l29 29q10 10 30.5 26.5t30.5 22.5l588 -246l26 -43q-8 -20 -12 -33l-14 -35q-8 -18 -17 -34q-4 -10 -12 -27l-725 -274z" />
<glyph unicode="?" horiz-adv-x="899" d="M141 1061q0 63 35 129q35 68 98 119q72 57 152 88q86 33 195 33q72 0 127 -19q59 -20 94 -51t57 -78q20 -41 21 -96q0 -83 -31 -148q-37 -76 -74 -120q-39 -45 -98 -103q-12 -12 -32.5 -30.5l-37 -34l-31.5 -29.5q-61 -66 -84 -100q-35 -53 -43 -115l-10 -86 q-16 -10 -24 -14l-14.5 -7.5t-16.5 -7.5l-33 -12q-25 -10 -26 -10l-23 20l4 125q3 61 25 117q20 51 55 102q45 66 70 96q49 61 69 93q31 45 53 98q20 47 21 108q0 27 -8 72q-6 37 -21 60q-18 29 -35 40q-20 14 -51 15q-33 0 -51 -17q-27 -23 -37 -49t-14 -71q-4 -41 6 -91 q-8 -4 -29.5 -11l-27.5 -9q-41 -14 -72 -23q-55 -14 -70 -16l-57 -8zM211 88q0 37 14 68q18 41 39 63q29 31 64 49q37 18 84 19q66 0 98.5 -33t32.5 -82q0 -35 -13 -72q-12 -35 -36 -63q-29 -31 -64 -49q-37 -18 -86 -19q-70 0 -100 33q-33 37 -33 86z" />
<glyph unicode="@" horiz-adv-x="1728" d="M59 225q-16 121 0 240q16 111 60 221q45 113 110 205q63 88 154 176q86 83 190.5 141.5t221.5 91.5q113 33 243 33q141 0 271 -53q127 -53 211 -152q88 -104 127 -245q39 -147 12 -334q-14 -94 -47 -164q-39 -82 -86 -143.5t-108.5 -116.5t-117.5 -90q-59 -37 -112 -55 q-61 -20 -94 -21q-16 0 -35 8t-41 31q-18 18 -39 63q-16 37 -27 101q-25 -39 -59 -78q-35 -37 -72 -66q-35 -27 -76 -43q-39 -16 -69 -16q-37 0 -76 18.5t-76 61.5q-35 39 -59 106q-23 59 -23 160q0 80 21 154q27 92 57 145q41 72 94 129q51 57 125 109q12 8 66 35 q39 18 76 30q33 10 77 21q35 8 72 8q40 0 80 -18q66 -31 76 -37l69 28q6 4 28 13.5t32 13.5l35 -76q-25 -20 -29 -24q-14 -14 -21 -25q-10 -18 -16 -37q-6 -25 -12 -53q-4 -18 -27 -137q-18 -92 -20 -119q-10 -88 -11 -94q-4 -53 -4 -62q0 -61 17 -94q14 -31 39 -31 q49 0 90 78q39 74 63 248q25 172 -2 295q-27 119 -94 207q-61 78 -162 121q-98 41 -207 41q-121 0 -225 -54q-106 -55 -188 -145q-86 -94 -140 -215q-55 -123 -73 -256q-18 -125 -4 -221q16 -102 51 -179q35 -74 94 -137q49 -51 125 -96q63 -37 145 -57q86 -20 154 -21 q37 0 111 12q59 10 106 27q61 23 98 39q61 29 88 43q31 16 72 45q43 31 53 39l37 -104q-49 -49 -100 -87q-65 -46 -148 -86q-92 -45 -184 -69q-98 -27 -217 -27q-121 0 -221 27q-113 31 -195 78q-96 55 -160 123q-72 74 -114 167q-46 94 -60 205zM698 379q0 -39 9 -92 q6 -33 16 -64q8 -20 22 -35q12 -12 23 -12q14 0 31 8q18 10 39 27q39 33 51 47q35 39 59 76q2 35 13 92q4 25 9 53.5t9 57.5l18 108q4 20 9.5 51t5.5 37q-14 14 -47 35q-20 12 -47 12q-37 0 -68 -18.5t-57 -50.5q-18 -23 -41 -72q-10 -23 -29 -86q-12 -43 -18 -90 q-7 -45 -7 -84z" />
<glyph unicode="A" horiz-adv-x="1208" d="M-55 0l12 84q65 12 98 25q35 12 47 43l461 1044q41 33 62 43q23 12 67 33q31 14 66 26l32.5 10.5t28.5 8.5l232 -1165q2 -14 8 -25q6 -12 16 -20.5t31 -14.5q14 -4 47 -8l-10 -84h-486l11 84q80 6 100 18q29 16 23 50l-54 272h-366l-121 -272q-12 -31 14 -46 q23 -12 105 -22l-11 -84h-413zM428 555h285l-90 449z" />
<glyph unicode="B" horiz-adv-x="1112" d="M-10 0l6 84q70 16 96 29q31 14 35 30l141 1016q-10 -2 -35.5 -5t-38 -5t-34 -7t-29.5 -7v92l102 24q37 8 119 21q10 2 129 12q68 6 137 6q219 0 324 -67q106 -70 107 -183q0 -104 -66 -188q-65 -83 -197 -129q57 -6 109 -35q53 -29 84 -70q35 -45 55.5 -94t20.5 -114 q0 -98 -43 -179q-43 -78 -119 -139q-70 -55 -174 -90q-98 -33 -217 -33h-51q-16 0 -66 4q-18 0 -36.5 2t-39.5 5q-12 0 -37.5 1t-38.5 3q-51 4 -188 16h-55zM387 143q-2 -6 16 -22q35 -16 68 -23q37 -6 76 -6q55 0 100 23q47 23 74 59q29 37 43 88q14 49 14 113q0 45 -10 96 q-8 43 -37 82q-25 34 -67 55q-41 20 -107 21h-35q-10 0 -26 -4q-4 0 -11.5 -1t-11.5 -3q-2 -2 -8 -2.5t-10 -2.5zM471 745h35q51 0 94 15q53 18 86 43q35 27 62 76q25 47 24 108q0 53 -18 90q-16 35 -47 58q-31 25 -66 32q-33 8 -70 9h-39z" />
<glyph unicode="C" horiz-adv-x="1054" d="M55 459q0 98 20.5 192t61.5 189q39 92 103 176q59 80 147 151q45 35 82 52q57 27 96 38q51 16 101 25q47 8 98 8q55 0 98 -8q33 -6 94 -22q43 -12 82 -31q58 -29 58 -42q0 -3 -4 -18q-4 -12 -19 -41q-8 -16 -28.5 -53t-30.5 -53q-20 -33 -31 -47q-18 -27 -22 -29l-70 19 q-16 45 -29 67q-20 37 -43 60q-25 27 -59 41q-37 16 -74 16q-41 0 -71.5 -8t-73.5 -41q-59 -45 -105 -123q-39 -68 -65 -156q-23 -78 -33 -162q-10 -88 -10 -143q0 -113 26 -180q25 -66 70 -113q37 -41 88 -59q49 -18 90 -19q27 0 57 7q49 10 72 18q40 15 92 43 q45 23 115 74q4 -2 10 -15q2 -4 6 -11t6.5 -11t10.5 -25q2 -10 6 -14q-63 -63 -135 -113q-70 -47 -131 -73q-63 -27 -119 -39q-58 -12 -105 -13q-92 0 -170 33q-80 33 -137 94q-55 57 -90 152q-35 92 -35 207z" />
<glyph unicode="D" horiz-adv-x="1236" d="M-10 0l10 84q70 16 96 29q31 14 35 30l139 1006l-137 -23v103q16 4 123 24q43 8 129 21q63 8 127 12q82 4 115 4q156 0 266 -37q115 -37 182 -106q74 -74 107 -168q35 -100 35 -223q0 -84 -23 -178q-23 -96 -64 -175q-47 -92 -102 -157q-59 -72 -139 -129 q-76 -55 -170 -86q-92 -31 -199 -31h-530zM399 170q-4 -31 23 -43q25 -12 92.5 -12t124.5 24q51 20 104 72q49 45 84 104q33 55 60 127q20 57 35 142q14 86 14 143q0 108 -18 191q-18 80 -60 141q-39 57 -104 88q-59 29 -160 29q-20 0 -30.5 -2.5t-28.5 -2.5z" />
<glyph unicode="E" horiz-adv-x="1028" d="M-10 0l10 84q78 18 100 29q31 14 35 30l133 971q3 12 -24 31q-25 16 -92 33l10 82h844l34 -35q-2 -8 -4 -17.5l-5 -25l-5 -25.5q-6 -29 -22 -86q-4 -12 -11.5 -41t-11.5 -43q-16 -53 -18 -57h-80q4 36 3 67q0 47 -7 80q-12 53 -45 53h-304l-55 -395h369l28 -39 q-2 -4 -22 -32l-29 -41l-28 -37q-18 -23 -25 -27q-16 20 -27 27q-20 12 -34 16q-27 8 -50 10q-18 2 -65 2h-133l-58 -419q-2 -12 5 -27q6 -12 22 -21q18 -8 57 -12q74 -6 99 -6h82q39 0 75 14q35 14 60 39q27 27 51 70q20 37 51 100l74 -28q-14 -72 -21 -93l-24 -98l-21 -82 q-6 -27 -16 -51h-905z" />
<glyph unicode="F" horiz-adv-x="972" d="M-10 0l10 84q78 18 100 29q31 14 35 30l133 971q3 12 -24 31q-25 16 -92 33l10 82h852l33 -35q-3 -25 -13 -68q-12 -57 -20 -86q-4 -12 -11.5 -41t-11.5 -43q-12 -43 -20 -57h-80q4 44 4 78q0 42 -6 69q-12 53 -47 53h-312l-55 -395h340l31 -39l-25 -37l-28 -41 q-4 -4 -12.5 -16t-14.5 -18q-18 -18 -27 -25q-18 23 -24 27q-20 12 -35 16q-27 8 -49 10q-18 2 -68 2h-104l-64 -471q0 -8 4 -12q8 -8 23 -14q20 -8 45 -17q12 -4 74 -16l-11 -84h-540z" />
<glyph unicode="G" horiz-adv-x="1134" d="M55 494q0 90 23 186q23 94 59 172q41 86 94 154q59 76 119 127q45 39 90 65.5t103 48.5q51 20 119 33q53 10 141 10q23 0 84 -8q51 -6 94 -18q35 -10 86 -33q45 -20 68 -43q4 -4 -2 -21q-4 -12 -19 -41l-27 -53q-6 -10 -18 -28.5l-16 -24.5q-10 -16 -31 -45 q-16 -23 -25 -29l-67 17q-18 47 -34.5 75.5t-49.5 61.5q-31 31 -70 45q-43 16 -90 16q-41 0 -92 -22q-43 -18 -98 -74q-39 -41 -66 -96q-39 -76 -55 -135q-29 -98 -37 -150q-12 -77 -12 -147q0 -106 24 -183q23 -70 68 -125q37 -45 92 -69q51 -23 100 -23q25 0 62 6 q35 6 71 33l43 291q0 14 -2 20q-4 12 -24 21q-23 10 -64 18q-66 14 -116 23l6 84h561l-6 -84q-53 -14 -78 -37t-29 -45q-6 -55 -8 -70q-4 -37 -10 -84q-6 -43 -10 -82q-4 -41 -7 -57q-76 -59 -143 -100q-63 -37 -125 -64q-53 -23 -108 -33q-43 -8 -91 -8q-94 0 -180 37 q-88 37 -151 105q-68 72 -107 165q-39 97 -39 218z" />
<glyph unicode="H" horiz-adv-x="1327" d="M-10 0l10 84q78 18 100 29q31 14 35 30l133 971q3 12 -24 31q-25 16 -92 33l10 82h512l-10 -82q-78 -18 -101 -31q-31 -16 -35 -33l-55 -389h457l53 389q0 14 -24.5 30.5t-92.5 33.5l13 82h512l-13 -82q-74 -18 -98 -31q-35 -18 -37 -33l-133 -971q-2 -10 27 -28 q20 -14 92 -31l-10 -84h-512l10 84q74 18 98 29q34 15 37 30l61 453h-456l-62 -453q-2 -10 25 -28q23 -14 92 -31l-10 -84h-512z" />
<glyph unicode="I" horiz-adv-x="651" d="M10 0l10 84q74 18 99 29q31 14 35 30l133 971q3 12 -25 31q-25 16 -92 33l12 82h510l-10 -82q-74 -18 -98 -31q-31 -16 -35 -33l-133 -971q-2 -10 24 -28q20 -14 92 -31l-12 -84h-510z" />
<glyph unicode="J" horiz-adv-x="657" d="M-365 -301q0 10 13 25q4 6 14 17t16 17l41 41q14 14 43 39q14 12 39 29q18 12 27 12q10 0 25 -14l11 -10.5t16 -13.5l14 -11q18 -16 49 -33q27 -14 57 -14q29 0 49 10q29 14 47 47q23 39 43 107q23 72 37 186l135 981q0 10 -4 14.5t-24 14.5q-12 6 -50 16q-39 10 -86 19 l11 82h561l-12 -82q-74 -18 -99 -31q-35 -18 -37 -33l-120 -909q-14 -109 -50 -189q-33 -76 -75 -135q-45 -61 -88 -98l-88 -72q-20 -16 -64 -41q-39 -23 -76 -37q-40 -15 -80 -24q-45 -10 -75 -10q-39 0 -78 12q-47 14 -72 27q-33 16 -49 32q-21 21 -21 29z" />
<glyph unicode="K" horiz-adv-x="1236" d="M-10 0l10 84q78 18 100 29q31 14 35 30l133 971q3 12 -24 31q-25 16 -92 33l10 82h512l-10 -82q-78 -18 -101 -31q-31 -16 -35 -33l-61 -450l391 423q6 8 20.5 22.5t18.5 20.5q12 14 8 25q-4 12 -20 14q-43 6 -56 9l13 82h428l-13 -82q-12 -2 -29.5 -5.5t-21.5 -3.5 q-18 -2 -37 -10q-6 -2 -16 -9t-12 -9q-6 -4 -16.5 -13.5t-14.5 -13.5l-457 -436l357 -461q10 -14 34 -20q20 -6 48 -7q16 0 53 9q33 8 49 14l29 -82q-33 -29 -74 -51l-94 -45q-55 -25 -92 -35q-49 -14 -66 -14q-27 0 -47.5 10t-34.5 33l-354 592l-66 -478q-2 -10 25 -28 q23 -14 92 -31l-10 -84h-512z" />
<glyph unicode="L" horiz-adv-x="1017" d="M-10 0l10 84q78 18 100 29q31 14 35 30l133 971q3 12 -24 31q-25 16 -92 33l10 82h512l-10 -82q-78 -18 -101 -31q-31 -16 -35 -33l-125 -909q-2 -18 4.5 -32.5t24.5 -22.5q16 -8 51 -15q33 -6 82 -6h97q39 0 73.5 14.5t57.5 38.5q33 37 51 70q20 37 51 100l74 -28 q-2 -14 -23 -93q-6 -23 -11 -48t-11 -50l-23 -82q-10 -41 -14 -51h-897z" />
<glyph unicode="M" horiz-adv-x="1636" d="M6 0l10 84q78 18 101 29q31 14 35 30l145 1002q-27 18 -61 24q-41 8 -60 9l12 82h340q12 0 17 -3q8 -4 14 -12q4 -6 12 -26l15 -43l223 -811l457 811q18 37 26 47q16 20 20.5 24t16.5 10q4 2 17 3h329l-10 -82q-41 0 -121 -27l-129 -1008q-2 -6 5 -12t26 -16 q23 -12 96 -31l-10 -84h-506l12 84q74 18 103 29q37 14 41 30l98 779l-516 -922h-102l-254 922l-115 -779q-2 -10 24 -28q20 -14 93 -31l-11 -84h-393z" />
<glyph unicode="N" horiz-adv-x="1271" d="M-2 0l10 84q72 10 101 27q31 18 32 32l131 959q-12 16 -55 49q-25 20 -59 27l12 82h281q14 0 20 -3q12 -4 18 -10q4 -4 17 -24q4 -8 10 -18.5t12 -22.5l443 -830l104 762q0 4 -4 16q-2 6 -16 17q-2 2 -37 16q-16 8 -60 15l11 82h399l-10 -82q-68 -10 -101 -29 q-31 -18 -34 -35l-156 -1145q-47 2 -90 17q-47 14 -71.5 26.5t-49.5 36.5q-23 23 -33 41l-430 805l-102 -752q0 -8 4 -14t18 -16q2 -2 37 -17q8 -4 58 -12l-11 -84h-399z" />
<glyph unicode="O" horiz-adv-x="1189" d="M70 485q0 157 49 289q49 135 129 244q51 66 94 106q51 47 115 86q59 37 133 58q78 23 155 22q104 0 191 -41q76 -37 135 -112q55 -70 82 -164q27 -92 27 -199q0 -74 -15 -143q-18 -84 -39 -146q-20 -57 -63 -137q-33 -61 -82 -123q-45 -57 -96 -100q-66 -55 -115 -82 q-51 -29 -127 -53q-61 -20 -131 -21q-100 0 -186 41q-80 39 -140 111q-53 66 -86 166q-30 94 -30 198zM342 532q0 -100 14 -172q16 -82 45 -133q31 -55 74 -85.5t100 -30.5q61 0 107 28q51 31 86 82q35 49 63 117q25 55 46 137q16 61 26 146q8 66 8 135q0 80 -16 157 q-14 74 -45 127q-29 53 -76 84q-45 31 -102 31q-55 0 -103 -29q-43 -27 -82 -77q-37 -49 -63.5 -110.5t-44.5 -133.5q-20 -80 -29 -139q-8 -64 -8 -134z" />
<glyph unicode="P" horiz-adv-x="1093" d="M-10 0l10 84q70 16 96 29q31 14 35 30l139 1008l-69 -12l-35 -8.5t-35 -6.5v101q43 12 113 26q47 10 125 21q18 2 39.5 4t46 4t39.5 4q61 6 114 6q119 0 219 -22q96 -23 162 -66q68 -45 101 -108q35 -66 34.5 -152t-37.5 -162q-37 -78 -102 -137q-63 -57 -151 -92 q-94 -37 -181 -37q-33 0 -78 10q-37 8 -65 25l-18 115l59 -25q23 -8 61 -8q115 0 176 71q63 74 64 203q0 86 -24.5 137.5t-63.5 81.5q-37 29 -92 41q-43 10 -107 11h-12h-12l-144 -1033q-2 -6 4.5 -12t22.5 -14q10 -6 47 -17q8 -2 78 -16l-10 -84h-549z" />
<glyph unicode="Q" horiz-adv-x="1220" d="M70 485q0 157 49 289q49 135 129 244q51 66 94 106q51 47 115 86q59 37 133 58q78 23 155 22q104 0 191 -41q76 -37 135 -112q55 -70 82 -164q27 -92 27 -199q0 -74 -15 -143q-18 -84 -39 -146q-20 -57 -63 -137q-33 -61 -82 -122.5t-104 -108.5q-63 -53 -125 -84 q37 -12 102 -45l92 -51q53 -29 88 -41q45 -16 88 -17q6 0 22.5 4t26.5 8q4 2 8.5 4.5t7.5 4.5l9 6t10 6t54 37l43 -76q-31 -47 -60 -82q-35 -41 -61 -65q-39 -35 -56 -45q-27 -16 -39 -17q-43 0 -88 17q-29 10 -86 43q-31 18 -84 59q-8 6 -83.5 67.5t-83.5 67.5 q-29 23 -87 55q-12 -2 -32 -2q-4 0 -14.5 -1t-16.5 -1q-100 0 -186 41q-80 39 -140 111q-53 66 -86 166q-30 94 -30 198zM342 532q0 -100 14 -172q16 -82 45 -133q31 -55 74 -85.5t100 -30.5q61 0 107 28q51 31 86 82q35 49 63 117q25 55 46 137q16 61 26 146q8 66 8 135 q0 80 -16 157q-14 74 -45 127q-29 53 -76 84q-45 31 -102 31q-55 0 -103 -29q-43 -27 -82 -77q-37 -49 -63.5 -110.5t-44.5 -133.5q-20 -80 -29 -139q-8 -64 -8 -134z" />
<glyph unicode="R" horiz-adv-x="1165" d="M-10 0l10 84q70 16 96 29q31 14 35 30l137 1008q-39 -6 -73 -12q-12 -2 -35 -7.5l-31 -7.5l2 103q53 14 102 24q43 8 123 21q10 2 136 12q70 6 137 6q227 0 342 -82q117 -82 116 -237q0 -51 -20 -105q-23 -57 -63 -104q-43 -49 -103 -90q-61 -43 -131 -66l215 -383 q10 -18 29 -33q14 -12 35 -14q18 -2 47 4q43 10 63 17l29 -78q-45 -27 -88 -49q-53 -27 -94 -43q-20 -8 -82 -29q-37 -12 -50 -12q-10 0 -34 4q-16 2 -33 18q-18 18 -33 41q-20 33 -33 68l-163 461q-39 0 -60 2q-25 2 -59 10l-62 -447q-2 -10 29 -28q23 -14 94 -31l-10 -84 h-520zM475 713q14 -4 43 -8q14 -2 47 -3q45 0 94 17q45 14 80 47q34 31 56 74q20 41 20 102q0 70 -22 119q-20 45 -57.5 71.5t-76 35t-81.5 8.5h-21h-20z" />
<glyph unicode="S" horiz-adv-x="999" d="M16 125q0 12 9 31q6 14 22 43q14 27 31 47l35 43q14 16 34 33q16 12 26.5 12t27.5 -17q8 -8 32 -41q14 -18 43 -51q33 -37 54 -53q35 -29 65 -41q35 -14 80 -14t82 14q47 18 70 41q27 27 45 68q16 35 16 90q0 47 -14 82q-18 43 -49 73q-34 34 -86 68q-35 23 -129 68 q-70 33 -111 65q-37 29 -66 72q-27 39 -34 80q-10 47 -11 90q0 66 35 131q34 65 99 117q61 49 155 81.5t203 32.5q100 0 182 -28.5t129 -63.5q2 -2 2 -7.5t-2 -12.5q-2 -10 -14 -39t-23 -49q-8 -16 -28 -50l-27 -41q-10 -16 -18 -20l-70 6q-14 55 -31 82q-20 33 -47 55 q-29 25 -55 33q-35 10 -62 10q-51 0 -86 -14q-43 -18 -59 -37q-20 -23 -33 -55q-12 -31 -12 -64q0 -14 8 -47q6 -23 29 -49q16 -20 63 -55q39 -29 107 -64q76 -39 137 -80q68 -45 96 -79q37 -43 55.5 -88.5t18.5 -102.5q0 -95 -43 -178q-43 -82 -114.5 -145.5t-172.5 -100.5 q-98 -37 -213 -37q-57 0 -120.5 12.5t-124.5 34.5q-47 18 -97 52q-39 26 -39 57z" />
<glyph unicode="T" horiz-adv-x="1122" d="M88 938l16 74q10 43 23 90l25 90l20 68h1014l33 -35q0 -8 -15 -66q-12 -53 -20 -82l-23 -84q-4 -12 -10 -37.5t-10 -35.5h-80q-4 61 -4 86q0 29 -4 65q-3 28 -13 43q-10 16 -28 16h-217l-133 -974q0 -8 4 -15q8 -12 18 -18q23 -14 41 -21q23 -8 70 -18l-13 -84h-546 l12 84q45 10 71 18q31 10 48 19q18 9 24 18q8 12 8 17l133 974h-221q-12 0 -28 -12q-10 -8 -31 -39q-16 -25 -39 -69l-51 -101z" />
<glyph unicode="U" horiz-adv-x="1280" d="M158 1178l12 82h504l-10 -82q-72 -16 -97 -31q-35 -18 -37 -33l-88 -604q-4 -16 -8 -57q-2 -18 -2 -56q0 -139 59.5 -204.5t182.5 -65.5q68 0 112.5 24.5t79.5 71.5q31 43 51.5 108.5t28.5 137.5l92 645q0 8 -4 14.5t-18 16.5q-8 6 -33 16t-53 17l10 82h412l-13 -82 q-68 -16 -92 -31q-31 -18 -33 -33l-84 -602q-18 -132 -67 -233q-49 -102 -121 -170q-70 -66 -162 -105q-84 -35 -188 -35q-80 0 -158 25q-77 25 -135 74q-59 49 -92 118q-37 78 -37 162q0 47 10 115l92 651q0 12 -24 31q-22 17 -90 33z" />
<glyph unicode="V" horiz-adv-x="1255" d="M119 1178l10 82h500l-13 -82q-78 -6 -100 -21q-25 -16 -18 -45l184 -799l373 797q6 16 6 26.5t-14 16.5q-23 10 -35 14l-62 11l13 82h403l-10 -82q-53 -10 -103 -27q-39 -12 -51 -41l-485 -1022q-10 -23 -35 -41q-20 -14 -55 -33q-27 -12 -64 -26.5t-59 -18.5l-271 1141 q-6 27 -32 43q-25 17 -82 25z" />
<glyph unicode="W" horiz-adv-x="1601" d="M109 1178l12 82h473l-12 -82q-49 -6 -72 -13q-27 -6 -39 -16q-10 -8 -14 -21q-2 -6 -2 -20l57 -678l377 830h106l193 -830l233 684q4 14 -4 23q-8 6 -28 14q-4 2 -12.5 5t-15.5 5t-15 4q-16 4 -58 13l10 82h422l-10 -82q-45 -10 -72 -19q-6 -2 -13 -4t-11 -4t-9.5 -3 t-9.5 -3q-8 -2 -24 -15q-6 -4 -10 -16l-359 -1055q-6 -22 -24 -36q-20 -16 -43 -27q-25 -10 -45 -16q-29 -8 -39 -11l-201 885l-375 -795q-8 -20 -29 -36q-14 -12 -43 -25q-37 -16 -47 -18q-37 -8 -43 -11l-86 1139q-4 25 -28 41q-27 17 -90 29z" />
<glyph unicode="X" horiz-adv-x="1224" d="M-41 0l12 84q68 6 105 22q43 18 76 62l346 457l-236 469q-18 33 -20 34q-10 12 -27 23q-20 12 -35 16l-51 11l12 82h531l-10 -82q-78 -8 -107 -25q-16 -9 -16 -27q0 -14 10 -32l141 -283l207 283q14 16 23 36q6 14 -2 25q-4 6 -31 14q-16 4 -64 9l13 82h419l-10 -82 q-27 -2 -61 -11q-23 -4 -49 -16q-25 -10 -39 -23q-20 -16 -33 -34l-305 -416l256 -510q18 -31 22 -37q14 -18 25 -25q12 -8 33 -14q12 -4 47 -8l-13 -84h-520l10 84q37 2 68 10t39 15q12 9 12 24q0 10 -10 35l-162 319l-248 -319q-18 -22 -24 -37q-6 -14 2 -25q4 -8 29 -14 q16 -4 65 -8l-10 -84h-420z" />
<glyph unicode="Y" horiz-adv-x="1177" d="M123 1155l6 84q29 4 66 10q47 8 75 11q25 2 70 6t51 4q28 0 55 -13q27 -12 41 -36q29 -53 56 -113q51 -119 57 -135q33 -86 53 -148q6 -23 23.5 -73l25.5 -74l267 432q16 27 -4 41q-25 18 -91 27l11 82h395l-10 -82q-70 -12 -96 -27q-31 -16 -48 -41l-376 -594l-50 -360 q0 -8 5 -15q6 -10 20 -18q23 -14 43 -21q33 -10 68 -18l-11 -84h-549l11 84q45 10 71 18q31 10 48 19q12 6 24 18q10 10 10 17l52 372q-18 66 -54 162l-61 162q-35 86 -62 145q-16 35 -57 113q-8 16 -12 20q-8 8 -23 15q-12 4 -39 8q-16 2 -61 2z" />
<glyph unicode="Z" horiz-adv-x="1077" d="M10 55l760 1065h-342q-15 0 -37 -18q-16 -14 -45 -53q-25 -33 -45 -78q-27 -55 -41 -99l-86 23l88 381q35 -8 45 -10q29 -4 39 -4q6 0 20.5 -1t20.5 -1h688l25 -54l-756 -1067h404q20 0 38 19q23 23 37 49q12 20 39 80l47 110l86 -24q-6 -33 -14 -84l-9 -49.5t-9 -55.5 q-8 -55 -17 -104q-8 -45 -12 -80h-893z" />
<glyph unicode="[" horiz-adv-x="768" d="M66 -336l272 1935h496l36 -36q-2 -4 -5 -13.5l-5 -15.5t-16 -35q-6 -12 -19 -33q-4 -6 -8 -11t-4 -7h-260l-223 -1628h256l39 -39q-2 -6 -11 -27l-16 -33l-16 -32l-13 -25h-503z" />
<glyph unicode="\" horiz-adv-x="868" d="M135 1567l47 32q12 -2 39 -12q25 -8 51 -18l50 -19q18 -6 36 -20l383 -1831l-45 -35q-10 4 -37 12q-14 4 -27.5 10.5t-25.5 10.5q-10 4 -29.5 11t-23.5 9q-23 8 -33 19z" />
<glyph unicode="]" horiz-adv-x="704" d="M-86 -297q0 4 5 13.5t7 15.5q4 8 7.5 17t7.5 18q8 16 16 30q4 10 10 23h262l230 1628h-254l-39 35q2 8 10 28.5t14 32.5q2 4 15 33q4 10 12 22h502l-270 -1935h-496z" />
<glyph unicode="^" horiz-adv-x="937" d="M94 592l422 870q12 12 31 25l37 24q25 16 37 23l32 16l201 -915q-37 -29 -53 -39q-27 -16 -58 -31l-30 27l-160 723l-330 -680q-2 0 -11 -8.5t-15 -12.5q-4 -4 -14.5 -10t-16.5 -10q-25 -14 -29 -16q-14 -8 -24 -13z" />
<glyph unicode="_" horiz-adv-x="929" d="M-23 -250q2 6 11 27l16 33q6 12 19 32l16 27h743l29 -35q-4 -16 -10 -27l-9.5 -15t-9.5 -19l-16 -33q-4 -10 -8 -16.5t-6 -10.5h-750z" />
<glyph unicode="`" horiz-adv-x="604" d="M188 1372l43 55q31 8 45 11q45 8 70 12q14 2 37 7t33 7q23 4 47 4l119 -411q-29 -16 -47 -25q-12 -6 -46 -16z" />
<glyph unicode="a" d="M33 305q0 80 20 154q20 76 60 145q37 68 92 129q49 53 127 109q59 39 131 65q80 29 170 29q43 0 82 -18q37 -16 78 -41q14 8 41.5 18t33.5 12q47 20 64 29l35 -76q-25 -20 -29 -24q-8 -8 -18 -25q-8 -12 -15 -37q-12 -45 -14 -53q-4 -18 -27 -137q-12 -66 -18 -119 l-6 -48t-6 -46q-4 -53 -5 -62q0 -20 5 -53q0 -4 12 -45q4 -18 16 -33q10 -12 23 -12q20 0 41 6q39 10 63 23l17 -76l-86 -60q-68 -43 -82 -51q-51 -27 -70 -35q-35 -14 -49 -14t-39 10q-23 10 -45 35q-20 23 -39 68q-20 49 -27 104q-45 -57 -69 -84q-41 -45 -74 -69 q-27 -20 -80 -46q-40 -18 -80 -18q-37 0 -78 18q-43 20 -75 62q-39 49 -58 106q-22 68 -22 160zM291 379q0 -52 6 -92q6 -39 18 -64q12 -23 27 -35t31 -12q14 0 30 8q23 12 46 31q35 31 57 57q53 63 72 88l12 89l14 96q4 23 7 46t7 46l15 78q-10 10 -58 47q-25 18 -55 18 q-40 0 -74 -18q-33 -18 -59 -51q-23 -29 -43 -72q-16 -35 -31 -86q-12 -43 -18 -90q-4 -31 -4 -84z" />
<glyph unicode="b" horiz-adv-x="1040" d="M86 1384l107 48q14 6 114 43q49 18 105 32q47 12 65 13q35 0 47.5 -18.5t12.5 -63.5q0 -51 -9 -117l-12 -91.5t-10 -76.5q-12 -92 -31 -197l-33 -206q53 61 93 96q27 23 81 55q39 23 70 29q34 6 62 6q53 0 94 -21q45 -23 78 -63q37 -47 53 -102.5t16 -139.5 q-3 -108 -49 -215q-47 -111 -123 -207q-16 -23 -80 -86q-41 -41 -96 -73q-57 -33 -113 -52q-57 -18 -120 -18q-31 0 -56 10q-27 10 -63 31q-35 18 -64 45q-35 31 -57 59q-27 33 -41 68q-16 39 -16 76q0 23 6 76q12 100 14 118l23 146l24 160l25 161q23 141 22 148 q2 16 6.5 42.5t6.5 46t4 36.5q6 55 6 84q0 25 -6 37q-8 18 -13 20q-8 6 -16 8q-6 2 -18 2q-4 0 -25 -4q-10 -2 -31 -10q-6 -2 -17 -6t-18 -6zM385 315q0 -23 16 -51q15 -28 37 -49q18 -18 45 -35q23 -14 41 -14q7 0 14 -1q36 0 60 17q33 23 55 58q16 25 33 63q12 27 23 76 q12 55 14 78q2 27 2 73q0 57 -4 84q-6 40 -19 68q-14 31 -30 45q-20 16 -43 16q-8 0 -33 -10q-14 -6 -49 -37q-16 -14 -64 -69q-29 -33 -77 -111q-2 -14 -15 -119q-6 -53 -6 -82z" />
<glyph unicode="c" horiz-adv-x="897" d="M78 322q0 82 12 135q14 66 47 133q31 63 82 125q47 55 123 106l35.5 20.5l32.5 18.5q33 20 82 37q51 18 90 28.5t92 10.5q41 0 80 -14q37 -12 65 -31l58 -37q29 -18 61 -29l-53 -53q-29 -31 -64 -57q-27 -23 -61 -45q-27 -18 -47 -19q-16 0 -35 21l-35 45q-6 8 -41 43 q-20 20 -51 20q-49 0 -88 -32q-37 -31 -66 -89q-25 -47 -41 -122q-14 -63 -14 -140q0 -123 37 -200q33 -70 90 -70q59 0 137 43q80 45 185 131l12 -16q4 -6 8 -13.5t8 -13.5q8 -12 17 -22q6 -12 10 -17q-63 -59 -146 -121q-65 -49 -122 -80q-51 -27 -109 -45 q-45 -14 -98 -14q-49 0 -97 16q-57 20 -96 60q-45 45 -72 112q-28 75 -28 175z" />
<glyph unicode="d" horiz-adv-x="1032" d="M33 315q0 84 20 154q25 88 58 141q43 74 94 127q53 57 127 105q29 18 63 35q55 25 72 30q25 8 78 21q35 8 78 8q8 0 20 -4q18 -6 23 -8q6 33 10 67.5t9 73.5t7 59q12 92 13 142q0 20 -5 37q-4 14 -10 20q-6 4 -14 8q-6 2 -17 2q-4 0 -24 -4q-14 -2 -33 -10 q-18 -6 -41 -12l-16 77q94 45 110 52q58 25 110.5 43t92.5 30q33 10 60 11q34 0 55 -19q20 -18 20 -63q0 -18 -8 -101q-6 -53 -18 -135q-2 -16 -10.5 -72.5t-14.5 -89.5q-14 -86 -30.5 -172t-30.5 -170q-6 -31 -14.5 -85t-10.5 -72q-12 -76 -18 -131q-8 -78 -9 -91 q0 -74 16.5 -112.5t39.5 -38.5q29 0 49 6q33 10 57 21l19 -78l-86 -58q-68 -43 -82 -51q-27 -14 -72 -35q-31 -14 -53 -14q-20 0 -39 10q-27 14 -45 37q-16 18 -37 68q-18 43 -25 104q-88 -117 -163.5 -168t-141.5 -51q-41 0 -82 21q-43 20 -75 63q-34 43 -56 111 q-20 63 -20 161zM291 379q0 -106 24 -156q25 -47 62 -47q8 0 26 6q12 4 41 29q35 31 60 57q20 23 74 99l24 157l31 191q-12 12 -55 47q-25 18 -60 18q-39 0 -71.5 -18.5t-59.5 -50.5q-23 -29 -43 -72q-16 -35 -31 -86q-12 -43 -18 -90q-4 -31 -4 -84z" />
<glyph unicode="e" horiz-adv-x="884" d="M43 303q0 77 18 148q16 59 56 135q29 55 84 121q43 51 110 108q20 16 58 41q29 18 73 39q27 12 84 29q43 12 86 12q57 0 107 -16q43 -14 74 -39q25 -18 43 -58q14 -29 14 -63q0 -27 -6 -58q-6 -29 -27 -67q-20 -37 -55 -72q-43 -43 -96 -78q-55 -35 -148 -82 q-84 -41 -207 -86q16 -94 51 -141q37 -49 84 -49q45 0 127 43q83 43 203 141q6 -2 15 -14q6 -8 14 -25q2 -4 7 -13t7 -13l8 -17q-92 -80 -149 -123q-53 -41 -127 -83q-49 -29 -109 -48q-53 -16 -98 -16t-96 18.5t-98 59.5q-43 37 -76 106q-31 65 -31 160zM305 446 q96 45 141 76q55 35 80 63.5t35 57.5q8 25 8 62q0 45 -16 63q-18 23 -45 23q-12 0 -21 -5l-28 -14q-10 -6 -31 -22q-14 -12 -27 -27q-27 -33 -39 -59q-20 -41 -28 -64q-12 -35 -19 -70q-8 -47 -10 -84z" />
<glyph unicode="f" horiz-adv-x="688" d="M-100 -391q51 29 90 82t71 129q29 66 52 153q18 70 28 166l72 635h-135l-25 41l142 90h34q10 92 29 154q20 72 53 139q31 66 78 125q46 58 111 104q49 35 112 66q55 27 121 27q53 0 103 -19q66 -25 94 -39q39 -18 76 -43q33 -20 47 -26q-12 -8 -35 -27 q-10 -10 -22.5 -18.5t-24.5 -18.5q-8 -8 -16.5 -14t-14.5 -12.5t-18 -14.5q-10 -10 -50 -37q-29 -20 -41 -26q-20 -10 -24 -11q-16 0 -33 21l-35 41q-31 37 -39 43q-20 18 -45 18q-39 0 -63.5 -36.5t-42.5 -92.5q-20 -59 -29 -125q-12 -94 -16 -131l-6 -47h245l29 -39 q-10 -14 -29 -35q-20 -20 -43 -40q-14 -14 -43 -39q-10 -10 -30 -23q-12 28 -43 37q-27 8 -90 8h-13l-65 -581q-12 -102 -62 -213q-43 -94 -112 -191q-55 -78 -144 -158q-74 -70 -151 -116z" />
<glyph unicode="g" horiz-adv-x="976" d="M-25 -389q0 8 11 29q8 14 24 38q12 16 33 41q23 27 35 37q6 4 16 13.5t15 13.5q14 10 16 10q14 0 31 -14q33 -27 47 -37q31 -20 67 -35q43 -16 97 -16q29 0 63 10q29 8 53 37q29 31 45 80q16 47 33 135q12 74 19 135q4 39 8 121q-82 -115 -164 -184q-78 -66 -168 -66 q-34 0 -74 18q-39 18 -75.5 61.5t-61.5 106.5q-25 65 -25 160q0 160 78 299q80 141 226 238q57 39 133 65q80 29 176 29q37 0 78 -21q39 -20 84 -47q49 29 71 39l60 29l39 -76q-35 -29 -54 -67q-20 -43 -28 -113q-8 -72 -19 -211q-6 -92 -10 -170q-2 -57 -10 -149 q-8 -84 -20.5 -150t-43.5 -131q-29 -59 -75 -121q-43 -55 -97 -102q-41 -37 -112 -78q-49 -29 -115 -49q-58 -18 -111 -19q-47 0 -104 11q-43 8 -96 26q-27 10 -68 37q-27 19 -27 37zM281 379q0 -106 24 -156q23 -47 64 -47q8 0 26 6q16 6 45 31q35 31 66 70q53 66 90 120 q4 86 8 125q6 61 19 144q2 8 10 35q-35 31 -64 51q-33 23 -57 22q-40 0 -74 -18q-33 -18 -59 -51q-23 -29 -43 -72q-20 -47 -33 -86q-8 -29 -16 -90q-6 -45 -6 -84z" />
<glyph unicode="h" horiz-adv-x="1095" d="M66 0q4 27 10 58.5t12 70.5l27 166l30 186l31 195l29 190l12 84.5l12 85.5q2 23 8.5 70t8.5 68q6 59 6 92q0 20 -4 37q-4 14 -10 20q-4 4 -13 8q-4 2 -14 2q-4 0 -29 -4q-8 -2 -35 -10q-20 -6 -43 -12l-16 77l64 27l20 8t15.5 7.5t14.5 7.5t23 8l76 28q14 6 39 14.5 t33 10.5q31 12 59 18q25 6 41 7q28 0 49 -19q20 -18 21 -63q0 -20 -6 -74q-10 -92 -15 -117q-16 -115 -20 -139q-10 -59 -23 -145q-10 -70 -20 -129l-17 -97q117 106 220 154q98 45 190 45q31 0 55 -6q27 -6 43.5 -22.5t26.5 -49.5q8 -27 8 -78q0 -35 -6 -82 q-10 -78 -14 -100q-12 -70 -21 -106q-6 -27 -20 -105q-4 -27 -15 -92q-6 -43 -6 -70q0 -37 8 -47q10 -12 27 -12q18 0 27 2q4 0 11 2t11 4q8 2 25 10l32 15l29 -76l-98 -57l-107 -52q-39 -18 -100 -39q-49 -16 -75.5 -16t-51.5 30.5t-25 86.5q0 18 7 59l5 37q5 37 9 57 q8 53 18 113l19 113q2 12 14 98q6 43 6 68q0 37 -2 49q-4 23 -8 28q-8 12 -14 15q-12 4 -19 4q-12 0 -33 -6q-27 -8 -47 -21q-25 -14 -53 -41q-25 -23 -51 -67q-35 -59 -49 -119q-14 -55 -33 -162q-4 -20 -8 -51t-6 -41q-2 -14 -4 -35.5t-2 -26.5q-2 -16 -3 -41v-30l-28 -15 q-20 -8 -45 -20l-53 -25l-54 -22l-23.5 -11.5t-21.5 -9.5l-28 -14z" />
<glyph unicode="i" horiz-adv-x="587" d="M49 801l101 41q25 10 52 22.5t58 22.5l102 35q43 14 66 14q31 0 45 -18q16 -20 16 -66q0 -31 -6 -80q-2 -18 -9 -56t-9 -52l-23 -125l-22 -125l-17 -111q-8 -66 -8 -78q0 -25 8 -45q6 -14 23 -14q20 0 29 2q4 0 13 2t13 4q8 2 29 10l35 15l20 -76q-47 -29 -100 -57 l-103 -54q-37 -18 -94 -39q-41 -14 -73 -14q-35 0 -59.5 30.5t-24.5 86.5q0 31 6 80q2 23 16 108q2 14 23 121l11 66.5t9 54.5q16 100 17 104q8 61 8 70q0 20 -4 36.5t-9 20.5q-6 6 -12 8.5t-16 2.5q-4 0 -25 -5q-16 -4 -29 -8l-36 -12zM279 1176q0 29 12 59q10 25 39 57 q20 25 59 43q37 18 82 19q35 0 53 -8q20 -8 35 -21q12 -10 21 -29q8 -20 8 -34q0 -29 -13 -60q-10 -27 -38 -55q-27 -27 -60 -43q-37 -18 -84 -19q-23 0 -51 9q-18 4 -37 20q-12 10 -20 29q-6 17 -6 33z" />
<glyph unicode="j" horiz-adv-x="583" d="M-399 -393q0 8 8 24q4 8 24 37l12 18q11 17 19 25q25 29 35 39q6 6 16.5 15.5t14.5 13.5q10 10 20 10t33 -16l45 -35q29 -20 55 -35q33 -16 64 -16q37 0 63 16q25 16 41 53q16 41 29 99q18 92 29 155q6 39 20 142l18 124q4 31 7.5 55.5t5.5 45.5l8 74q4 27 6 57l6 65 q4 45 4 62q0 10 1 25.5t1 19.5q0 20 -4 36.5t-8 20.5t-12 8q-4 2 -17 3q-4 0 -24.5 -4.5t-30.5 -8.5l-17.5 -6l-17.5 -6l-20 78q6 2 63 26l20.5 8.5t15.5 7.5t14.5 7t23.5 8l76 29q14 6 38.5 14l30.5 10l58 19q25 6 39 6q29 0 47 -12.5t18 -53.5q0 -20 -2 -39q-4 -31 -6 -63 q-4 -37 -8 -80q-2 -23 -5 -43t-5 -41q-2 -27 -9 -74q-4 -39 -6 -57q-4 -35 -8 -74t-8 -86q-2 -23 -31 -217q-16 -102 -47 -172q-37 -84 -76 -139q-53 -76 -88 -111q-43 -43 -88 -77q-53 -41 -123 -70q-66 -27 -133 -27q-45 0 -88 13q-41 12 -76 30q-41 23 -53 35 q-18 19 -18 29zM254 1176q0 29 12 59q12 29 37 57q20 25 59 43q37 18 84 19q33 0 52 -8q25 -10 37 -20.5t20 -29.5q6 -14 6 -34q0 -29 -12 -60t-37 -55.5t-61.5 -43t-81.5 -18.5q-25 0 -54 9q-14 4 -34 20q-12 10 -21 29q-6 17 -6 33z" />
<glyph unicode="k" horiz-adv-x="1038" d="M66 0q2 10 7 41t7 49l24 146q8 43 14.5 88t14.5 90l33 200q8 49 15 99.5t16 101.5q25 154 28 186q12 82 19 156q8 90 8 107q0 18 -4 39q-2 16 -8 20q-8 8 -17 8q-2 0 -9 1t-11 1t-25 -4q-8 -2 -16 -5t-17 -5q-18 -6 -41 -12l-18 77l102 43l117 46q23 8 63 19t44 13 q45 14 69 15q16 0 25 -2q10 -2 18 -15q10 -14 13 -30q4 -29 4 -56q0 -37 -6 -96q-2 -18 -17 -129q-4 -33 -22 -152l-27 -166l-29 -169q-14 -86 -26 -168l153 112q102 80 111 86q39 33 49 53q8 18 -14 25q-17 5 -49 5q-13 0 -27 -1l-10 80l90 12q66 8 86 11q16 2 42.5 5 t37.5 3q25 2 69 2q65 0 86 -19q20 -18 21 -53q0 -18 -21 -41q-27 -31 -63 -59q-12 -10 -28.5 -21.5l-37 -27t-35.5 -25.5q-33 -25 -135 -88l-127 -80q18 -20 47 -63q29 -41 46 -74l21 -39t22 -39q31 -55 40 -68q18 -27 41 -49q18 -18 39 -18q10 0 60 8q35 6 73 29l37 -76 q-45 -37 -73.5 -57.5t-81.5 -53.5q-33 -20 -78 -39q-39 -16 -60 -16q-31 0 -63 29q-31 28 -61 73q-25 37 -58 103q-43 84 -55 113q-18 39 -53 106q-23 43 -52 84q-8 -47 -20 -133q-10 -66 -12 -115q0 -12 -3 -44t-3 -46q0 -35 6 -53q-4 -4 -31 -15q-4 -2 -45 -20l-55 -25 q-43 -18 -55.5 -24l-23.5 -11.5t-22 -9.5l-28 -14z" />
<glyph unicode="l" horiz-adv-x="567" d="M82 1384l65 27q16 6 35 14.5t39 16.5l80 28q14 6 39 13.5t35 11.5q34 12 61 18t39 7q29 0 45 -19q16 -20 17 -63q0 -40 -7 -105q-6 -59 -18 -145q-23 -147 -27 -176q-6 -45 -14 -92.5l-16 -96.5l-29 -188q-2 -12 -27 -172q-12 -80 -18 -141q-8 -82 -8 -97q0 -33 10 -47 q9 -12 25 -12q27 0 49 8q2 2 27.5 9t41.5 16l19 -76q-74 -45 -105 -62q-84 -41 -106 -51q-52 -22 -98 -37q-43 -14 -78 -14q-31 0 -52 31q-20 29 -20 88q0 27 6 82q6 59 19 133l26 170l29 188l29 193l26 176q12 83 19 147q8 86 8 98.5t-6 37.5q-4 14 -11 20q-4 4 -16 8 q-6 2 -18 2q-4 0 -25 -4q-8 -2 -15 -5t-16 -5l-39 -12z" />
<glyph unicode="m" horiz-adv-x="1591" d="M20 803l64 26l74 29l75 29q51 18 70 24q31 12 59 19q25 6 37 6q20 0 27 -4q10 -6 16 -19q8 -14 11 -34q2 -14 2 -58q0 -20 -2 -37q0 -8 -1 -23.5t-3 -23.5q66 66 108 99q52 40 98 61q49 23 86 31q39 8 82 8q31 0 64 -14q25 -10 45 -35q18 -20 24 -53q6 -31 7 -64v-8v-14 q70 66 104 92q49 37 90 57q43 22 80 31q33 8 76 8q25 0 55.5 -10.5t46.5 -28.5q18 -22 31 -55q10 -29 10 -82q0 -70 -10 -131q-8 -49 -29 -152q-6 -31 -26 -143q-12 -68 -13 -109q0 -31 11 -45q8 -12 26 -12q20 0 53 8q20 4 66 23l14 -76q-63 -37 -100 -57l-105 -52 q-47 -23 -94 -39q-45 -16 -73 -16q-14 0 -29 8q-16 10 -27 23q-12 15 -18 36.5t-6 49.5q0 18 6 57q10 70 14 90l21 111l20 115q4 25 14 106q6 49 7 84q0 37 -11 57q-8 18 -26 19q-4 0 -25 -4q-12 -2 -37 -17q-14 -8 -45 -35q-23 -20 -49 -59q-20 -27 -31 -51l-22 -66 q-10 -31 -21 -82q-10 -49 -18 -106q-14 -106 -16 -143q-3 -49 -3 -61v-15q-8 -6 -28 -15q-31 -12 -47 -20l-54 -25l-53 -22q-4 -2 -47 -21l-29 -14l-41 41q29 135 41 201q8 39 19.5 107.5t13.5 76.5q4 25 23 152q8 57 8 102q0 76 -41 76l-21 -4q-10 -2 -34 -17 q-20 -12 -47 -35q-31 -27 -52 -57q-4 -6 -30 -53q-6 -12 -25 -66q-14 -43 -22 -84q-9 -46 -19 -104q-6 -33 -18 -143q-5 -42 -5 -61q0 -9 1 -15l-29 -15q-20 -8 -45 -20l-53 -25l-54 -22l-23.5 -11.5t-21.5 -9.5l-18 -9t-8 -5l-43 41q18 86 39 209l32 194q6 35 23 162 q8 63 8 115q0 20 -4 36.5t-8 20.5q-8 8 -12.5 10.5t-14.5 2.5q-6 0 -26 -5q-10 -2 -31 -10l-39 -12z" />
<glyph unicode="n" horiz-adv-x="1101" d="M27 803l65 26q14 6 41 16.5t35 12.5l78 29q39 14 71 24l58 19q25 6 37 6q10 0 22 -4q8 -2 15 -17q4 -8 8 -34q4 -29 4 -58q0 -8 -1 -21.5t-1 -19.5q0 -12 -4 -45q102 96 215 150q104 49 194 49q31 0 56 -6q23 -6 43 -23q16 -14 26 -47q8 -27 8 -78q0 -37 -6 -82 q-10 -78 -14 -100q-12 -70 -21 -106l-20 -107q-14 -72 -16 -92q-6 -43 -7 -70q0 -33 11 -47q10 -12 26.5 -12t22.5 2q12 4 20 6q4 2 13.5 5t11.5 5q8 4 17 7.5l20 7.5l28 -76q-76 -45 -98 -57l-104 -52q-41 -18 -97 -39q-45 -16 -71 -16q-35 0 -59.5 30.5t-24.5 86.5 q0 18 6 59l5 37q5 37 9 57q4 29 10.5 57.5t10.5 55.5q12 72 18 113q2 12 14 98q6 43 7 68q0 55 -9 73q-10 23 -36 23q-12 0 -35 -6q-16 -4 -45 -23q-33 -20 -54 -41q-31 -31 -53 -67q-33 -53 -47 -115q-12 -51 -33 -164q-4 -16 -7 -43t-5 -35q-4 -18 -8 -57q-4 -33 -4 -47 q0 -8 1 -22.5t1 -20.5l-29 -15q-20 -8 -45 -20l-53 -25q-16 -6 -30.5 -12l-24.5 -10l-22.5 -11.5t-20.5 -9.5l-29 -14l-43 41q16 78 39 205q4 27 33 201q16 98 24 167q8 66 8 109q0 29 -2 37q-4 16 -8 20t-12 9q-4 2 -17 2q-4 0 -24 -5q-14 -2 -33 -10q-29 -10 -39 -12z" />
<glyph unicode="o" horiz-adv-x="923" d="M33 344q0 147 59 268q63 129 195 228q14 12 59 37q39 20 68 30q51 16 71 21q49 8 72 8q76 0 139.5 -28.5t106.5 -78t65 -118.5q23 -72 23 -152q0 -68 -19 -135q-23 -82 -49 -133q-34 -65 -80 -123q-45 -55 -102 -105q-29 -27 -57 -40q-12 -6 -70 -33q-23 -10 -68 -23 q-31 -8 -65 -8q-86 0 -145 29q-63 31 -108.5 82t-70.5 123q-24 69 -24 151zM297 428q0 -59 14 -127q12 -57 35 -102q25 -51 49 -72q27 -25 54 -25q49 0 83 35q37 37 58 88q18 47 28 121q10 72 11 127q0 77 -13 135q-12 61 -32 99q-23 41 -45.5 61t-51.5 20q-55 0 -90 -32 q-39 -37 -59 -84q-22 -52 -31 -117q-10 -72 -10 -127z" />
<glyph unicode="p" horiz-adv-x="1044" d="M-27 -461q2 10 7.5 40t7.5 46l24 133q6 37 13.5 78l15.5 86l33 180l32 183q2 6 27 166q18 111 21 137q6 59 6 92q0 20 -4 37q-4 14 -11 20q-4 4 -16 8q-6 2 -16 3q-4 0 -25 -5q-16 -4 -29 -8l-36 -12l-19 78q43 20 102 45l63 22.5t54 20.5q61 25 103 35q47 12 65 12 q25 0 43 -14q14 -12 15 -52q0 -10 -5 -47q-6 -59 -8 -69q53 55 96 90q45 35 82 55q35 18 72 29q31 8 70 8q47 0 88 -21q45 -23 74 -59q33 -41 49 -96q18 -59 18 -133q0 -61 -12 -127q-12 -68 -31 -127q-14 -47 -45 -117q-16 -39 -51 -98q-8 -14 -51 -72q-23 -31 -64 -63 q-29 -25 -72 -46q-37 -18 -77 -18q-16 0 -52 10q-29 8 -63 31q-23 14 -66 53q-33 29 -65 76l-21 -123q-14 -86 -26 -174q-14 -102 -15 -117q-4 -61 -4 -71q0 -25 6 -41l-30 -11q-14 -4 -47 -16q-6 -2 -54 -22q-16 -6 -30.5 -12.5t-24.5 -10.5l-45 -18q-20 -8 -29 -13z M360 281q27 -31 43.5 -43.5t53.5 -32.5q23 -12 53 -21q33 -8 45 -8q41 0 72 25q29 23 47 57q20 41 33 115q12 68 12 149q0 35 -8 88q-6 33 -21 72q-8 20 -28 45q-15 18 -31 18q-12 0 -41 -14q-27 -14 -58 -41q-35 -31 -65 -67q-39 -45 -66 -95q-2 -12 -8 -52t-10 -62z" />
<glyph unicode="q" horiz-adv-x="972" d="M33 305q0 82 20 156q23 80 60 145.5t94 128.5q51 57 127 107q12 8 65 35q33 16 80 30q27 8 80 21q35 8 74 8q41 0 84 -18q29 -12 78 -46q49 25 73 35l37 16.5t27 12.5l39 -76q-8 -8 -17.5 -14t-13.5 -10q-18 -20 -22 -25q-9 -15 -19 -37q-4 -10 -12 -53l-43 -262 l-39 -246l-33 -217q-12 -86 -20 -182q-6 -80 -7 -133q0 -59 11 -78l-11 -4l-18 -7l-47 -18l-57 -20q-16 -6 -29.5 -12.5t-26.5 -10.5q-14 -6 -25.5 -10t-19.5 -8l-28 -13l-45 39q3 34 12 92q4 33 10 68l12 70l27 172l16.5 99l16.5 97q-41 -47 -84 -86q-33 -29 -70 -53 q-37 -23 -61 -31q-27 -8 -62 -8q-37 0 -78 18q-43 20 -75 62q-39 49 -58 106q-22 68 -22 160zM283 379q0 -57 8 -92q10 -41 20.5 -63.5t30.5 -35.5q18 -12 37 -12q10 0 27 8q18 9 43 31q25 20 57 57q41 45 74 90l57 349q-25 25 -59 49q-29 20 -56 20q-40 0 -73 -18 q-31 -16 -62 -51q-16 -18 -45 -72q-23 -41 -35 -86q-12 -43 -18 -90q-6 -45 -6 -84z" />
<glyph unicode="r" horiz-adv-x="870" d="M20 801l33 13l33 13q16 6 34.5 14.5t39.5 16.5l76 29q14 6 38.5 14l30.5 10q31 12 60 19q25 6 38 6q31 0 39 -21q10 -25 11 -73v-29q0 -10 -4 -35l-5 -41q-2 -14 -6 -39q61 88 90 119q41 45 78 72q37 29 70 37q37 10 63 10q16 0 43 -10q25 -9 49 -25q12 -8 26.5 -14 t27.5 -13q28 -15 49 -24q-16 -20 -23 -33q-12 -20 -26 -47l-33 -53q-8 -12 -15.5 -25.5t-15.5 -25.5q-25 -33 -26 -37q-12 -14 -19 -15q-18 0 -37 13q-2 2 -34 28q-8 6 -16.5 13.5t-16.5 13.5q-16 12 -33 12q-25 0 -57 -22q-31 -22 -62 -62q-33 -43 -59 -98 q-28 -58 -49 -129q-23 -80 -35 -152q-11 -67 -11 -128q0 -14 1 -27q-6 -2 -23.5 -10.5l-30.5 -14.5l-77 -35l-74 -34l-47 -23l-43 41q35 174 41 209q29 162 32 192q4 35 11.5 91.5t9.5 70.5q8 63 8 117q0 20 -4 36.5t-8 20.5t-12 8q-4 2 -17 3q-6 0 -27 -5q-16 -4 -28 -8 l-37 -12z" />
<glyph unicode="s" horiz-adv-x="808" d="M-25 119q0 10 17 47l35 70q31 49 41 61q20 27 30 27q8 0 21 -19q4 -6 12 -19.5t12 -21.5l33 -55q16 -25 45 -55q16 -16 58 -41q31 -18 73 -19q59 0 97 33q35 31 34 86q0 37 -16 61q-18 29 -47 54q-29 27 -66 47l-73 41q-57 31 -88 55q-27 23 -54 59q-18 27 -28 60 q-8 27 -9 63q0 63 39 115q41 53 99 90q55 35 129 57q68 20 135 21q53 0 96 -12q41 -12 82 -29l70 -31q31 -14 65 -20l-37 -53l-45 -56q-18 -25 -43 -45q-20 -18 -30 -18q-18 0 -39 20q-20 23 -48 49q-31 31 -57 50q-29 20 -67 20q-57 0 -80 -25q-23 -27 -23 -67 q0 -27 10 -45q12 -20 33 -39q18 -16 53 -37q31 -18 72 -39q27 -14 80 -47q39 -25 70 -57q37 -41 51 -72q18 -39 18 -94q0 -47 -20 -88q-22 -43 -56 -80q-27 -29 -81 -66q-43 -29 -95 -51q-43 -18 -98 -33q-49 -12 -92 -12q-76 0 -127 16q-55 18 -100 43q-41 23 -66 52 q-25 27 -25 49z" />
<glyph unicode="t" horiz-adv-x="712" d="M39 815l127 90h51l6 35q6 45 13 64q8 25 14 34q9 12 18 19q2 2 7.5 5t9.5 6t8 5l219 103l29 -25q-4 -4 -17 -33q-6 -14 -16 -55q-8 -35 -19 -100l-10 -58h242l29 -39q-8 -14 -29 -35l-43 -40q-10 -8 -20.5 -19.5t-20.5 -19.5q-10 -10 -29 -23q-12 29 -47 37q-33 8 -96 8 h-4l-53 -328q-2 -6 -3.5 -20t-1.5 -20q-4 -29 -4 -41q0 -6 -1 -18.5t-1 -18.5t-1 -15.5t-1 -11.5q0 -61 18.5 -86t45.5 -25q37 0 80 15q49 16 120 49l31 -86q-51 -41 -115 -84q-51 -35 -108 -66q-49 -27 -96 -43q-45 -16 -74 -16q-35 0 -65.5 14.5t-59.5 42.5q-23 23 -43 64 q-16 33 -16 80v39q0 6 1 18t1 21q0 14 4 43q6 41 8 51l70 442h-134z" />
<glyph unicode="u" horiz-adv-x="1126" d="M18 801l33 13l33 13q16 6 35.5 14.5t40.5 16.5l78 29q14 6 38.5 13t32.5 11q34 12 62 19q27 6 39 6q29 0 39 -18q10 -20 10 -66q0 -29 -6 -76q-10 -72 -15 -100q-8 -55 -18 -115q-4 -25 -10.5 -53.5t-10.5 -58.5l-14 -101q-6 -45 -6 -76q0 -41 16 -67q14 -25 29 -25 q33 0 94 49q59 47 144 160q2 12 7 39t7 43l12 82q2 10 6 34.5l6 37.5q4 45 5 55q0 29 -3 37q-4 16 -8 20t-12 8q-4 2 -14 3q-4 0 -25 -5q-12 -2 -27 -8q-20 -8 -32 -12l-21 78q6 2 64 26q10 4 20 8.5t15.5 7.5t14.5 7t23 8l76 29q14 6 39 14t33 10q31 12 59 19q25 6 39 6 q28 0 37 -18q8 -16 8 -66q0 -41 -4 -70q0 -6 -4 -38.5t-8 -51.5l-19 -98l-16 -100q-4 -18 -8 -52t-4 -41q-4 -29 -4 -77q0 -55 2 -76q2 -18 12 -49q6 -18 16 -25q12 -8 23 -8q27 0 47 6q10 2 57 23l19 -76l-82 -56l-82 -51q-37 -23 -76 -39q-35 -14 -61 -14 q-25 0 -47.5 14.5t-42.5 40.5q-16 23 -35 72q-16 47 -23 96q-35 -47 -82 -90q-31 -29 -92 -69q-35 -23 -94 -48q-41 -16 -90 -16q-27 0 -64 16q-35 16 -61 45q-25 29 -45 78q-16 41 -17 107q0 16 5 69l12 86q4 23 7 45.5t7 45.5l17 90q2 10 6 36.5l6 40.5q4 49 4 62 q0 29 -2 37q-4 14 -10 20q-4 4 -13 8q-4 2 -16 3q-4 0 -24.5 -4.5t-30.5 -8.5l-37 -12z" />
<glyph unicode="v" horiz-adv-x="997" d="M-4 791l94 47l98 47q57 25 88 37q37 14 54 14q31 0 49 -29q20 -31 41 -98q2 -8 5 -18.5t6 -25.5t7 -28l12.5 -56t10.5 -48q18 -86 24 -117q6 -25 21 -113l14 -90q2 -10 4 -22t3 -18.5t1 -10.5q49 76 105 182q37 72 57 129q23 66 25 82q0 8 1 17.5t2 14.5t1 9 q0 27 -12.5 39.5t-38.5 12.5q-23 0 -33 -3q-15 -3 -37 -12l-25 76q37 23 80 41q66 29 99 41q66 25 94 33q43 12 67 12q12 0 33 -4q10 -2 27 -14q10 -8 18 -27q6 -14 6 -39q0 -29 -22 -86q-20 -51 -76 -150l-135 -229l-209 -336q-4 -2 -35 -16q-27 -12 -57 -29l-30.5 -15 t-26.5 -14l-16.5 -8l-14.5 -7t-8 -3l-41 41l-19 119q-6 41 -22 123q-4 20 -11.5 62l-11.5 63q-12 61 -24 114q-6 27 -13.5 51.5t-11.5 47.5q-4 14 -9 39.5t-9 35.5q-9 28 -18.5 43.5t-19 24.5t-18.5 12q-6 2 -16 2q-6 0 -27 -4q-25 -4 -33 -8l-38 -12z" />
<glyph unicode="w" horiz-adv-x="1419" d="M-16 791q39 23 96 49l36.5 18l29 14.5t34.5 14.5q18 8 88 35q37 14 56 14q29 0 43 -33q15 -34 30 -104q0 -2 4.5 -21.5t6.5 -36.5q8 -53 12 -86q8 -66 12 -102q6 -55 12 -104q8 -66 11 -95q2 -39 6 -65q27 51 71 153q27 59 58 146q25 68 37 123q14 61 16 94q18 18 53 43 q49 35 64 43q41 25 59 33q29 12 45 12q4 0 10 -16q12 -31 17 -43q2 -6 16 -64q2 -12 8.5 -35.5t8.5 -36.5q12 -49 16 -73q6 -37 12 -68q15 -95 31 -178q12 -70 21 -146l81 148l66 125q18 37 41 100q14 41 14 70q0 20 -14 33q-16 12 -41 12q-6 0 -39 -4q-16 -2 -45 -10 l-29 75q31 20 80 45q29 14 86 35q29 10 78 23q33 8 61 8q23 0 33 -2q18 -4 27 -10q12 -9 18 -25q6 -14 6 -39q0 -27 -6 -57q-4 -25 -26 -76q-23 -55 -45 -100q-2 -2 -74 -138l-102 -186l-136 -246q-6 -2 -20 -10q-6 -4 -14.5 -7t-18.5 -9l-39 -23l-41 -20q-4 -2 -16 -9.5 t-19 -9.5l-20 -10l-43 41q-23 178 -43 303q-20 131 -47 227q-14 -49 -74 -186q-47 -111 -139 -274l-21 -11q-16 -8 -36.5 -20t-45 -24.5t-45.5 -24.5l-37 -19l-24 -12l-41 41q-2 23 -6 54.5t-8 68.5l-13 133q-2 25 -7 69t-7 64l-14 119q-2 12 -5.5 45t-5.5 47q-2 18 -10 55 q-6 31 -14 43q-9 15 -18.5 24.5t-18.5 12.5q-6 2 -21 2q-4 0 -24.5 -4t-32.5 -8t-41 -12z" />
<glyph unicode="x" horiz-adv-x="960" d="M-49 4l96 86l109 100l110 107q70 70 101 104l-52 131q-12 31 -51 109q-29 57 -47 78q-25 29 -47 29l-29 -5q-18 -2 -45 -10q-39 -8 -55 -12l-25 80l90 45l95 45q37 18 80 33q37 12 55 12q23 0 51 -29q27 -27 55 -78q28 -49 56 -110l55 -129l53 72q8 10 21.5 30.5 t19.5 28.5q16 20 27 43q8 16 8 24q0 18 -25 29q-13 5 -41 5q-21 0 -51 -3l-6 82l76 12l82 13q27 4 80 8q25 2 59 2q61 0 90 -16q27 -14 27 -37q0 -37 -92 -142q-84 -94 -273 -286q33 -80 49 -115q16 -39 48 -94q23 -43 43 -66q23 -25 40 -24q10 0 60 8q33 6 72 24l26 -75 q-43 -31 -86 -58q-37 -25 -84 -49t-76 -35q-37 -12 -61 -12q-31 0 -55 23q-20 18 -54 65q-29 41 -53 94q-41 88 -51 113l-76 -111l-90 -133q-10 -2 -35 -6q-29 -4 -47 -6t-55 -10q-23 -4 -57 -11q-4 -2 -21.5 -5t-26 -5l-20.5 -5t-14 -3z" />
<glyph unicode="y" horiz-adv-x="995" d="M-201 -399q0 16 19 47q12 20 45 65q14 20 51 62q27 31 39 35q33 -33 49 -45.5t53 -30.5q33 -16 49 -21q33 -8 41 -8q47 0 105 53q45 43 117 152q-2 14 -11.5 58l-15.5 71l-33 145q-25 98 -39 148l-39 137l-36 115q-25 70 -31 82q-18 45 -39 65q-16 16 -35 17q-4 0 -25 -5 q-25 -4 -32 -8q-25 -8 -39 -12l-23 78l97 47l51 22.5l47 20.5q37 16 84 33q37 12 57 12q29 0 51 -29q18 -23 45 -98q23 -59 37 -111q2 -4 16.5 -55l22.5 -80q0 -2 39 -151l37 -160l72 149q33 70 57 134q8 20 37 106q14 43 14 70q0 49 -53 53q-14 2 -35 -4q-23 -8 -47 -19 l-27 76q37 22 80 43q16 8 49 21.5t39 15.5q47 20 84 29q45 10 67.5 10t33.5 -2q23 -4 30 -10q10 -8 21 -25q8 -14 8 -39q0 -31 -29 -110q-16 -45 -80 -181l-112 -231l-137 -256q-74 -133 -138 -236q-66 -104 -139 -184q-70 -74 -147 -119q-77 -43 -166 -43q-47 0 -84 11 q-35 10 -76 28q-37 16 -55 33q-21 19 -21 29z" />
<glyph unicode="z" horiz-adv-x="786" d="M-23 25q76 92 146 188l135 190l119 170q51 74 98 132h-207q-25 0 -43 -6.5t-32 -20.5q-20 -20 -31 -43l-29 -70l-72 19q14 76 21 98l24 102q12 49 21 90q9 40 12 62q9 -3 25 -6l31 -6l36 -6q12 -2 37 -3h488l30 -45q-39 -41 -96 -110l-80 -101l-67 -96l-70 -100l-76 -109 l-94 -125l29 9q16 4 26.5 6t26.5 2q25 0 49 -8q18 -6 60 -19q10 -2 30.5 -8t30.5 -8q27 -8 51 -8q12 0 21 2q14 4 26 16q18 18 29 33q27 39 37 57l65 -41q-10 -23 -29.5 -60.5t-25.5 -51.5q-27 -55 -55 -91q-35 -41 -66 -59q-35 -20 -86 -20q-37 0 -84 10q-6 2 -82 24 l-73 23q-37 10 -58 10q-35 0 -82 -20l-125 -58z" />
<glyph unicode="{" horiz-adv-x="702" d="M102 653q109 31 160 82t64 127q6 51 6 96q0 14 -1 41t-1 39.5t-1 39t-1 40.5q0 47 8 96q8 66 47 123q41 59 96 105q61 49 133 86q70 37 160 71l33 -86q-35 -20 -74 -53q-35 -29 -59 -59q-33 -41 -43 -64q-18 -39 -21 -65q-6 -51 -6 -92q0 -14 1 -42t1 -40.5t1 -40 t1 -41.5q0 -23 -8 -92q-8 -51 -25 -84q-23 -41 -51 -76t-67 -64q-43 -33 -78 -47q90 -18 127 -87.5t20 -180.5q-6 -55 -18 -100q-4 -16 -14.5 -48t-12.5 -42l-24 -89q-8 -31 -17 -83q-4 -25 -4 -66q0 -27 15 -59q12 -28 36 -56q23 -27 72 -55l-53 -102q-74 31 -150 69 q-70 37 -108 76q-45 43 -62 96q-18 53 -8 125q6 53 19 96l24 86l25 89q10 37 20 100q12 80 -16 113q-27 31 -80 30h-21h-10q-2 0 -6 -1t-6 -1l-21 -4z" />
<glyph unicode="|" horiz-adv-x="448" d="M23 -301l260 1837q20 12 32 18q27 14 35 19q16 8 35 14q4 2 15.5 6l17.5 6l41 -32l-260 -1837q-12 -8 -29 -17q-10 -6 -20.5 -10t-18.5 -8q-14 -6 -39 -19q-18 -9 -31 -12z" />
<glyph unicode="}" horiz-adv-x="700" d="M-82 -229q27 16 72 53q35 29 59 59q29 35 41 64q14 31 21 65q8 70 8 92q0 55 -2 82t-2 82q0 39 6 92q6 39 26 84q16 37 50 76q29 35 67 64q41 31 80 47q-90 18 -127 88q-37 72 -22 180q4 43 20 100l25 91l24 86q12 43 19 86q4 25 4 65q0 27 -15 59q-10 23 -39 56 q-27 29 -69 55l53 102q66 -27 148 -69q70 -37 108 -76q43 -45 62 -96q18 -57 10 -125q-4 -41 -21 -96l-24 -86l-25 -88q-12 -47 -18 -101q-12 -82 14 -112q29 -31 82 -31h18h13q2 0 5 1t5 1l20 4l4 -94q-109 -31 -159.5 -82t-63.5 -127q-6 -53 -6 -96q0 -14 1 -41t1 -39v-80 q0 -41 -6 -96q-10 -68 -47 -125q-37 -55 -96 -103q-58 -46 -136 -86q-70 -37 -159 -71z" />
<glyph unicode="~" horiz-adv-x="983" d="M70 502q35 61 63 102q39 55 80 96t88 70t90 29t86 -25q39 -23 82 -55q47 -37 78 -55q39 -25 78 -25q43 0 88 39q51 43 96 121l45 -25q-27 -53 -61 -102q-39 -55 -80 -97q-39 -39 -90 -69q-47 -29 -90 -29q-40 0 -80 24.5t-80 55.5q-33 25 -82 55q-41 25 -82 25 q-47 0 -88 -39q-41 -37 -94 -123z" />
<glyph unicode="&#xa1;" horiz-adv-x="499" d="M-61 -502l213 981q16 12 24 15l14.5 7t16.5 7l31 12q8 4 16 5t12 3l25 -20l-45 -924l-26.5 -13t-33.5 -15l-75 -37q-20 -10 -39 -17.5t-35 -15.5q-39 -18 -55 -23zM94 731q0 39 15 70q18 41 38 63q25 29 64 47q37 18 84 19q66 0 98.5 -33t32.5 -82q0 -33 -12 -70 q-12 -39 -37 -65q-25 -29 -64 -47q-41 -20 -86 -21q-70 0 -100 33q-33 37 -33 86z" />
<glyph unicode="&#xa2;" horiz-adv-x="966" d="M84 471q0 72 20 135q25 76 60 133q47 76 96 125q63 63 131 109q41 25 64 35q31 14 71 26l17 121l53 37q18 12 55 25l21 -23l-21 -139h15h16q47 0 92 -17q41 -14 82 -37l38 -21t34 -19q34 -18 55 -25l-29 -29l-39 -43q-10 -12 -22 -23.5t-23 -23.5q-22 -25 -43 -43 l-39 -31q-18 -12 -26 -12q-14 0 -27 19l-28 45l-35 55q-16 27 -43 45l-84 -614q35 8 57 20q33 18 60 37q35 25 69 53l80 68q2 -2 6 -7.5l8 -11.5l8.5 -13l8.5 -13l16 -23q6 -12 10 -16l-104 -94q-18 -16 -88 -70q-31 -25 -78 -51q-33 -18 -74 -33l-16 -115q-8 -8 -23 -16 q-6 -4 -14 -10t-14 -9q-20 -12 -31 -16q-25 -10 -27 -10l-18 22l18 138q-45 0 -100 18q-57 18 -104 59q-45 39 -78 111t-33 172zM340 510q0 -88 24.5 -139.5t59.5 -73.5l82 596q-41 -25 -70 -64q-29 -41 -51 -94q-18 -47 -33 -110q-12 -60 -12 -115z" />
<glyph unicode="&#xa3;" horiz-adv-x="966" d="M-63 49q41 33 57 47q18 16 43 49q18 25 35 58q6 14 24 76q10 33 21 102q2 18 12 135h-109l-22 35q0 2 3 9t5 11q4 6 8 13.5t8.5 13.5t7.5 14.5t7 14.5q2 4 6 10t6 10h90q18 123 66 236q47 111 117 186q74 80 161 123q90 43 195 43q33 0 55 -2q18 -2 70 -10q25 -4 78 -21 q40 -12 80 -37q-6 -33 -9 -45q-6 -28 -12 -61l-16 -68q-2 -10 -7.5 -33.5t-9.5 -33.5q-14 -51 -16 -56q-6 -29 -12 -39h-80q2 51 -8 113q-10 53 -27 88q-16 33 -49 55q-29 20 -70 21q-10 0 -38.5 -4t-45.5 -17q-27 -18 -45 -45q-25 -35 -43 -79q-14 -33 -33 -130 q-16 -84 -22 -184h270l31 -33l-57 -98h-252q-12 -113 -50 -199q-41 -94 -98 -165q66 6 100 6q47 0 66 -2l59 -4q31 -2 82 0q39 0 76 10q27 8 60 33q20 16 51 61q27 39 53 96l72 -28q-4 -14 -23 -93q-6 -20 -12 -45.5t-15 -52.5l-24 -82q-10 -31 -19 -51q-49 -27 -108 -29 q-57 -2 -139 4q-78 6 -156 19q-53 8 -156 16q-66 6 -145 -2q-66 -6 -119 -39z" />
<glyph unicode="&#xa4;" horiz-adv-x="966" d="M31 240l155 151q-18 39 -28 98q-8 47 -2 109q9 55 30 111q14 37 60 102l-117 152l10 47q6 4 21.5 12l19.5 10l43 21l115 -150q49 35 92 51q49 18 109 19q53 0 96 -19q45 -18 80 -51l155 150h41l27 -92l-156 -150q25 -57 33 -102q10 -61 2 -111q-10 -57 -31 -109 q-23 -53 -59 -100l115 -147l-6 -49l-91 -41l-112 147q-37 -27 -92 -47q-49 -18 -104.5 -18.5t-102.5 18.5q-49 20 -80 47l-156 -149l-41 4q-2 4 -7 18t-7 23zM274 600q-6 -37 5 -82q10 -43 32 -76q27 -37 60 -55q35 -20 84 -20q43 0 88 20q41 18 73 51q31 31 54 76 q20 41 26 88t-2 84q-8 35 -32 74q-18 29 -60 53q-37 20 -84 25q-39 0 -86 -21q-43 -18 -76 -51q-31 -31 -53.5 -76t-28.5 -90z" />
<glyph unicode="&#xa5;" horiz-adv-x="966" d="M14 1100l9 84q12 2 27.5 3t37.5 5q53 8 80 10q14 2 38.5 5t35.5 3q45 4 53 4q20 0 53 -14q25 -12 39 -35q66 -115 105 -213q43 -106 92 -260l221 363q18 25 -4.5 41t-89.5 24l12 84h395l-10 -84q-31 -6 -57 -12q-14 -4 -41 -14q-10 -4 -27 -17q-8 -6 -20 -22l-340 -545 v-8h245l21 -23l-53 -106h-232l-29 -217q0 -8 5 -15q8 -12 18 -18q23 -14 43 -21q29 -10 70 -18l-13 -84h-548l12 84q45 10 71 18q25 8 46 19q16 8 26 18q8 8 8 17l29 217h-270l-19 22q0 2 4 8.5t6 14.5q6 14 14.5 30.5t14.5 31t10 22.5h258l2 10q-18 68 -47 156 q-10 33 -55 147q-25 63 -55 131q-25 55 -53 109q-6 12 -15 20q-6 6 -22 12q-20 8 -39 11q-17 2 -62 2z" />
<glyph unicode="&#xa6;" horiz-adv-x="448" d="M33 -301l110 780l33 17l17.5 9t19.5 9q8 4 39 14q25 8 35 13l43 -35l-115 -780q-18 -12 -27 -17l-43 -18q-10 -4 -20 -7t-21 -8q-12 -4 -20 -7t-12 -5zM178 748l113 792q6 4 18.5 9t16.5 7q8 4 17 9.5t19 9.5q8 4 39 14q25 8 35 10l39 -32l-108 -791q-2 -2 -31 -16 q-12 -6 -41 -18.5t-43 -16.5l-33 -10z" />
<glyph unicode="&#xa7;" horiz-adv-x="940" d="M106 80q0 18 9 80q6 51 18 100q14 59 27 92l82 -10q2 -49 20 -102q16 -49 39 -78q25 -31 57.5 -47.5t67.5 -16.5q39 0 55 4q27 6 39 17q15 12 25 31q8 18 12 47q6 43 -10.5 73.5t-48.5 59.5q-25 23 -72 51l-78 47q-33 20 -72 53q-37 31 -67 74q-29 39 -45 100 q-16 59 -8 125q2 31 18 66q20 45 35 65q25 35 49 60q43 43 57 53q-28 31 -43 68q-14 35 -8 77q10 66 45 113q41 55 86 84q61 39 117 55q66 18 127 19q45 0 84 -6q47 -8 76 -15q35 -8 63 -24q41 -23 49 -31q4 -4 0 -21l-8 -36l-16 -50q-12 -37 -21 -53q-4 -8 -10 -23.5 t-10 -23.5q-12 -20 -23 -35l-69 8q-4 98 -35 148q-33 51 -98 51q-57 0 -86 -22q-31 -25 -37 -68q-4 -33 10 -55q16 -27 43 -47q37 -29 67 -45q43 -23 89 -54q29 -16 73 -51q43 -33 72 -74t45 -102q16 -59 6 -137q-12 -84 -49 -152q-35 -66 -86 -112q20 -37 25 -58 q8 -37 2 -69q-8 -70 -35 -121t-64 -86q-37 -34 -80 -56q-39 -18 -86 -32q-39 -10 -81 -15q-53 -4 -68 -4q-12 0 -37 3t-31 3q-35 2 -71 13q-45 10 -70 22q-39 18 -61 33q-5 2 -5 37zM379 829q-6 -43 4 -75.5t35 -61.5q29 -31 65 -57l95 -66q10 -8 34 -20q4 -2 35 -23 q25 37 31 80q6 55 -2 90q-8 33 -35 70q-23 29 -66 63q-55 43 -98 70q-10 6 -22 14l-25 17q-6 -6 -33 -49q-14 -25 -18 -52z" />
<glyph unicode="&#xa8;" horiz-adv-x="1040" d="M272 1186q0 31 13 65q14 41 32 64q25 33 54 49q31 18 71 18q31 0 47.5 -8t30.5 -26q12 -14 19 -35q8 -25 8 -41q0 -31 -12 -66q-14 -41 -33 -63q-20 -27 -55 -47.5t-72 -20.5q-25 0 -45 10q-23 10 -33 25q-12 14 -18 35q-7 18 -7 41zM666 1186q0 37 10 65q14 41 33 64 q25 33 53 49q31 18 72 18q31 0 47 -8q18 -10 32 -26q12 -14 19 -35q6 -18 6 -41q0 -31 -12 -66q-14 -41 -33 -63q-23 -29 -53 -47q-35 -20 -72 -21q-27 0 -47 10q-18 9 -31 25q-12 14 -18 35q-6 18 -6 41z" />
<glyph unicode="&#xa9;" horiz-adv-x="1359" d="M74 526q0 92 24 187q27 106 66 182q41 82 106 164q59 74 142 131q86 59 172 88q98 33 196 33q119 0 219 -45q94 -43 162 -119q63 -74 103 -178q37 -100 36 -217q0 -90 -22 -191q-20 -94 -66 -186q-45 -94 -104 -168q-61 -77 -141 -135q-78 -57 -172 -90q-92 -33 -203 -33 q-119 0 -217.5 47t-163.5 125q-70 84 -102 182q-35 108 -35 223zM193 545q0 -109 28 -189q31 -86 86 -147.5t131 -97.5q72 -35 170 -35q82 0 156 24.5t137 69.5q61 43 115 106q51 59 88 132q31 57 55 151q20 76 21 160q0 106 -29 186q-31 86 -86 148q-57 63 -131 96 q-80 35 -168 35q-80 0 -154 -25q-70 -23 -139 -69q-59 -39 -114.5 -104.5t-90.5 -131.5q-31 -59 -55 -149q-20 -76 -20 -160zM305 526q0 43 10 101q10 55 33 106q25 57 66 108.5t106 102.5q14 12 55 37q31 18 68 31q45 14 80 22q47 10 86 10q51 0 86 -14q43 -18 68 -33 q35 -20 51 -34q20 -16 41 -21q-14 -12 -41 -33l-26.5 -19l-26.5 -20l-23.5 -16t-28.5 -18q-23 -14 -35 -14.5t-28 20.5l-35 41q-25 29 -39 41q-23 18 -47 18q-39 0 -63 -16q-33 -23 -54 -47q-27 -33 -43 -70q-14 -31 -28 -82q-12 -43 -18.5 -86t-6.5 -82q0 -59 14 -94 q16 -37 41 -59.5t58 -30.5q37 -10 67 -10q16 0 53 8q14 4 58 24q31 15 67 43q49 37 78 64q2 -2 5 -7t5 -8q6 -10 15 -20l14 -18q8 -12 8 -13q-49 -47 -116 -102q-41 -35 -101 -66q-45 -25 -90 -37q-37 -10 -88 -10q-49 0 -98 15q-51 14 -94 49q-45 35 -72 92q-31 65 -31 147 z" />
<glyph unicode="&#xaa;" horiz-adv-x="624" d="M39 616q8 20 16 31q6 8 17 33h508l28 -35q-8 -20 -16 -31q-10 -12 -17 -28h-509zM90 918q0 86 47 161q45 74 125 127q20 16 66 35q39 16 94 16q20 0 45 -12q35 -18 45 -24q20 12 41 20q12 4 20.5 9t14.5 7l20 -40l-16 -13l-14 -14q-8 -8 -11 -19q0 -2 -3 -11t-5 -17 q-6 -27 -14 -76q-8 -51 -10 -70q-4 -45 -5 -57q0 -10 -1 -22.5t-1 -14.5q0 -27 7 -47q6 -23 20 -22q12 0 18 2q9 3 31 12l19 -39q-25 -16 -48 -29q-8 -4 -21 -12t-22 -12q-29 -12 -40 -17q-18 -6 -28.5 -6t-23 6t-24.5 19q-14 14 -23 30q-9 18 -12 43q-39 -49 -74 -75 q-31 -23 -65 -23q-20 0 -52 10q-28 9 -49 31q-20 20 -37 57q-14 32 -14 87zM236 958q0 -57 12 -85.5t28 -28.5q10 0 21 6q18 12 22 16q25 27 31 33q35 43 39 49q2 14 5 29.5t5 32.5l9 59q2 10 5 28.5t3 22.5l6 33l2 2q-18 14 -29 19q-14 6 -28 6q-37 0 -64 -23 q-20 -18 -39 -57q-16 -39 -22 -72q-6 -41 -6 -70z" />
<glyph unicode="&#xab;" horiz-adv-x="997" d="M47 430q4 25 6 35q0 4 1 12t3 12q2 8 2 15l441 430l51 -51l-10 -19l-27 -47l-39 -67l-43 -76l-43 -76l-37 -68q-8 -14 -15 -25t-11 -20l-11 -18l121 -420l-65 -49zM438 430q0 6 1 17.5t3 17.5q0 4 1 12t3 12q1 4 3 10q1 4 2 5l440 430l49 -51l-10 -19l-27 -47l-37 -67 l-43 -76l-43 -76l-37 -68q-8 -14 -15 -25t-11 -20l-10 -18l120 -420l-65 -49z" />
<glyph unicode="&#xac;" horiz-adv-x="966" d="M39 520q6 20 10 27l17 33q4 8 10 16t10 16l14 27h742l30 -33l-51 -373q-9 -9 -24 -18q-14 -10 -31 -20q-4 -2 -14.5 -10.5t-16.5 -10.5q-14 -8 -28 -12l-27 35l41 288h-658z" />
<glyph unicode="&#xad;" horiz-adv-x="690" d="M23 469q2 10 12 27l8 16t10 16l19 31l14 27h535l28 -35q-2 -10 -12 -27q-4 -8 -8 -17l-8 -18l-19 -30q-9 -15 -12 -25h-539z" />
<glyph unicode="&#xae;" horiz-adv-x="702" d="M117 1083q10 84 41 146q33 66 82 114q51 51 112 78q68 29 135 29q74 0 127.5 -26.5t92.5 -77.5q37 -47 51 -115q16 -70 4 -148q-12 -76 -43 -145q-29 -63 -82 -117q-47 -47 -113 -76q-61 -27 -135 -26q-76 0 -129 26.5t-90 75.5q-35 47 -51 117q-14 63 -2 145zM195 1083 q-8 -61 0 -112q8 -49 34.5 -92t67.5 -64q45 -23 104 -22q57 0 109 22q43 18 84 64q39 41 59 92q18 45 29 112q10 59 0 113q-8 49 -35 92q-23 37 -69 64q-39 23 -105 22q-63 0 -108 -22q-47 -25 -84 -64q-35 -39 -58 -92q-18 -43 -28 -113zM266 883l2 26q8 2 19 6l10 5 q8 2 8 10l43 313q-6 -2 -16 -2l-17 -2l2 39q28 6 62 12q35 6 72 6q39 0 69.5 -10t44.5 -24q18 -18 23 -35q6 -18 2 -41q-6 -49 -35 -74q-31 -27 -72 -39l78 -129q6 -12 14 -12q16 0 31 6l2 -18l-2 -2q-6 -4 -22 -13q-6 -4 -12.5 -6t-14.5 -6l-25 -12q-8 -4 -16 -4 q-10 0 -16 6q-4 4 -8 12l-70 170h-12l-4 1q-4 1 -7 1l-18 -137q-2 -4 7 -10.5t28 -10.5l-2 -26h-148zM406 1112h14q39 0 61.5 12.5t28.5 53.5q2 27 -14 51q-16 23 -60 22h-10z" />
<glyph unicode="&#xaf;" horiz-adv-x="937" d="M150 1192q2 6 12 27q4 10 10 20t10 18l21 37q6 10 9 17.5t5 11.5h758l29 -35q-2 -8 -13 -28q-12 -25 -20 -39l-23 -39q-6 -12 -14 -25h-760z" />
<glyph unicode="&#xb0;" horiz-adv-x="681" d="M188 918q0 74 29 133q29 61 76 110q45 47 104 76q61 29 113 29q39 0 76 -17q31 -14 53 -43q23 -31 35 -61q10 -29 10 -72q0 -74 -31 -137q-29 -59 -78 -109q-47 -47 -104 -71q-63 -27 -109 -27q-51 0 -81.5 16.5t-53.5 45.5q-22 28 -30 61q-9 31 -9 66zM344 977 q0 -49 23 -72q25 -25 55 -24q25 0 43 12q16 12 35 33q8 10 20 43q8 23 8 49q0 8 -4 33q-2 14 -14 30.5t-23 22.5q-14 8 -34 8q-18 0 -39 -10q-18 -10 -35 -29q-14 -16 -25 -45q-10 -26 -10 -51z" />
<glyph unicode="&#xb1;" horiz-adv-x="833" d="M0 139q2 10 12 27q4 6 9.5 18.5t7.5 16.5q4 6 9 15t9 17l7 14.5t7 12.5h635l29 -35q-2 -4 -7 -13t-7 -13q-4 -6 -7.5 -15.5t-9.5 -19.5q-10 -18 -18 -35q-14 -23 -14 -25h-635zM70 649q2 10 12 27q4 6 9 18.5t7 16.5q4 8 7.5 13l5.5 8t6 11l14 27h244l37 266q8 2 24 8 q8 4 15.5 6.5t15.5 6.5q4 2 16.5 5t16.5 5q8 2 15 5t11 3l25 -33l-37 -272h254l27 -35q0 -4 -13 -26l-18 -35l-19 -35q-14 -23 -14 -25h-237l-37 -264q-2 -2 -25 -10l-31 -12q-4 -2 -16 -5.5t-16 -5.5l-15.5 -5t-11.5 -3l-27 33l37 272h-256z" />
<glyph unicode="&#xb2;" horiz-adv-x="690" d="M82 664l151 147q84 82 115 115q49 52 80 92q35 45 49 72q23 41 27 61q8 37 8 55.5t-2 26.5q-4 16 -8 22q-6 10 -18.5 16.5t-32.5 6.5q-23 0 -39.5 -10.5t-24.5 -22.5q-12 -20 -14 -35q-3 -22 0 -43q-12 -6 -37 -12q-16 -4 -53 -12t-56 -10q-8 0 -21 -3.5t-20 -3.5l-18 50 q4 31 33 63q29 31 75 59q41 25 107 45q58 18 123 19q49 0 94 -10q37 -8 68 -29q27 -18 39 -39q14 -25 14 -47q0 -35 -8 -59q-8 -27 -29 -60q-18 -31 -49 -67q-35 -41 -76 -80l-106 -101l-142 -125h230q22 0 37 19l24 43q10 23 21 61l57 -12l-43 -235h-543z" />
<glyph unicode="&#xb3;" horiz-adv-x="688" d="M86 702l41 86q57 -41 100 -61t97 -20q25 0 51 10q25 8 47 28q16 14 31 48q12 27 12 67q0 29 -10 53q-6 14 -23 31q-14 14 -31 17q-4 0 -11 2t-13 3t-12.5 1t-15.5 -1t-11 -1q-18 0 -33 -2l-2 69q51 12 90 33q31 16 53 43q14 18 23 47q6 25 6 49q0 4 -1 13.5t-1 13.5 q0 14 -6 22q-6 10 -16 17q-12 8 -27 8q-8 0 -29 -8q-12 -6 -24 -21q-8 -12 -14.5 -28.5t-2.5 -38.5q-14 -8 -35 -15q-8 -2 -22 -8t-21 -8q-25 -6 -47 -10l-43 -6l-16 43q4 29 27 57q25 31 65 59q43 31 94 47q61 20 116.5 20.5t102.5 -13.5q41 -12 64 -35q25 -25 33 -45 q10 -27 10 -49q0 -31 -12.5 -60t-32.5 -51q-25 -29 -47 -43q-25 -16 -60 -27q40 -3 68 -18q25 -14 43 -39q20 -29 25 -47q8 -37 8 -51q0 -57 -29 -111q-25 -47 -76 -88q-47 -39 -108 -59q-63 -23 -129 -23q-27 0 -58 6q-33 6 -65 19q-37 12 -66 30q-30 18 -57 45z" />
<glyph unicode="&#xb4;" horiz-adv-x="604" d="M158 1071l223 397q12 0 43 -6l65 -12q18 -4 64 -12q8 -2 17.5 -4t15.5 -3t8 -1l24 -66l-385 -348q-12 4 -18 8q-2 2 -10 6t-10 6q-12 8 -21 17q-12 12 -16 18z" />
<glyph unicode="&#xb5;" horiz-adv-x="1130" d="M-12 -461q6 57 18 127q6 33 11.5 72t13.5 82l28 164l29 168l29 163l12 73l12 73q6 49 17 112q8 47 8 107q0 29 -2 37q-4 14 -10 20q-4 4 -13 8q-4 2 -14 3q-4 0 -24.5 -4.5t-30.5 -8.5l-37 -12l-15 78l33 13l33 13q72 29 80 31l80 29q51 18 73 24q31 12 60 19q25 6 33 6 q28 0 37 -18q10 -20 10 -66q0 -10 -3 -35.5t-3 -36.5q-2 -18 -11 -90l-16 -98l-16 -98q-8 -61 -11 -88q0 -10 -3 -33t-3 -33q0 -76 20.5 -108.5t51.5 -32.5q10 0 35 10q6 2 45 37q25 23 61 71q35 47 76 115q4 35 14 84q8 57 13 82q8 53 10 68q4 41 4 55q0 18 -4 63 q-4 35 -12 54q31 10 57 20l86 31l46.5 15t39.5 14l63 18l19 -25q9 -15 12 -24l-16 -76l-9.5 -46l-11.5 -54l-24 -115l-21 -117q-6 -31 -14 -104q-6 -49 -6 -80q0 -59 10 -80q12 -27 27 -27q16 0 51 23q31 20 71 74l35 -70q-49 -80 -92 -125t-88 -78q-37 -27 -80 -41 q-37 -12 -63.5 -12t-53.5 21q-25 18 -43 51q-16 29 -28 73q-10 39 -15 86q-68 -115 -137 -172q-72 -59 -141 -59q-49 0 -92 30.5t-76 82.5q-8 -92 4 -174q10 -68 34.5 -133.5t41.5 -94.5l26 -51q-10 -4 -32 -12q-37 -12 -54 -21l-61 -26q-16 -8 -32.5 -13.5t-28.5 -11.5 l-52 -22l-28 -13z" />
<glyph unicode="&#xb6;" horiz-adv-x="1138" d="M72 903q12 84 55 156q45 74 109 123q68 51 157 80q92 29 199 28q4 0 22.5 -1t30.5 -1q33 -2 74 -4q14 -2 44 -3t44 -1q16 -2 45 -2t45 -2l116.5 -8t110.5 -8h56l-13 -82q-72 -16 -96 -31q-31 -16 -35 -33l-166 -1218q-2 -10 25 -31q23 -16 88 -33l-10 -82h-641l12 82 q63 14 96 32.5t35 31.5l86 626q-34 -6 -80 -6q-102 0 -182 25q-76 23 -135 75q-55 49 -80 121q-24 71 -12 166zM342 831q6 -51 28.5 -96t63.5 -69q43 -27 105 -27h39l73 526h-26h-23q-41 0 -82 -14q-43 -15 -80 -43q-33 -25 -63 -72q-29 -45 -35 -98q-8 -46 0 -107z M639 -104v-13q2 -6 8 -8l12 -6q8 -4 11 -4q12 4 24 10q12 8 17 21l170 1241q-6 2 -17.5 4t-17.5 2t-17.5 2t-17.5 4z" />
<glyph unicode="&#xb7;" horiz-adv-x="499" d="M86 594q0 41 12 68q16 35 41 63q29 33 62 49q37 18 84 19q68 0 100.5 -33t32.5 -82q0 -35 -12 -72q-10 -31 -39 -63.5t-62 -48.5q-37 -18 -86 -19q-72 0 -102 33q-31 34 -31 86z" />
<glyph unicode="&#xb8;" horiz-adv-x="323" d="M-178 -297q31 -12 72 -16q31 -2 57 4q23 6 37 20q12 12 12 31q0 20 -18 33q-20 12 -43 10q27 55 51 113q20 47 33 106l106 -2q0 -16 -2 -26.5t-6 -26.5l-6 -25l-4 -16q33 0 57 -12q27 -12 39 -29q20 -23 24 -41q6 -23 7 -47q0 -35 -17 -68q-15 -31 -42.5 -55.5 t-67.5 -42.5q-35 -16 -84.5 -22.5t-98.5 1.5q-55 10 -104 33z" />
<glyph unicode="&#xb9;" horiz-adv-x="700" d="M123 621l8 65q47 6 84 12q23 4 53 15q14 4 29 14q8 6 8 12l55 412q4 33 5 37q0 12 -9 20q-4 4 -10 6.5t-27 2.5q-8 0 -45 -5q-31 -4 -71 -12l-13 66q6 2 23.5 5t26.5 5q12 2 63 16q18 6 36.5 10.5t37.5 8.5q20 6 37.5 12t34.5 10l61 19l45 14l27 -27l-82 -600q0 -8 4 -12 q10 -10 20 -14q27 -10 43 -15q27 -6 78 -12l-8 -65h-514z" />
<glyph unicode="&#xba;" horiz-adv-x="507" d="M8 616q8 20 15 31q4 6 14 33h459l28 -35q-8 -20 -14 -31q-8 -14 -14 -28h-459zM72 940q0 76 30.5 137.5t104.5 118.5q39 31 74 45q43 16 81 16q49 0 88 -16t62 -40.5t35 -63.5q10 -31 10 -82q0 -76 -35 -140q-39 -70 -96 -116q-35 -29 -72 -47.5t-86 -18.5 q-47 0 -81.5 14.5t-61.5 45.5q-23 25 -39 65q-14 35 -14 82zM225 979q0 -25 8 -61q4 -23 21 -50q14 -25 27 -34q14 -12 32 -13q25 0 43 19q16 16 27 47q9 28 12 61q4 45 4 68q0 37 -6 65q-6 25 -20 47q-14 20 -27 29q-14 8 -31 8q-25 0 -45 -16q-16 -14 -26 -43 q-12 -37 -15 -59q-4 -45 -4 -68z" />
<glyph unicode="&#xbb;" horiz-adv-x="997" d="M41 47l10 19l27 47l37 67l43 76l43 76l37 67l26 47q10 16 10 17l-120 420l65 51l324 -434q-4 -25 -6 -35q0 -4 -1 -12.5t-4 -12.5l-2 -14l-440 -428zM430 47l19 31q10 16 20 35.5t23 42.5l57 100l57 100q27 45 43 76l17 31l-121 420l65 51l324 -434q-4 -25 -6 -35 q0 -4 -1 -12.5t-3 -12.5l-2 -14l-441 -428z" />
<glyph unicode="&#xbc;" horiz-adv-x="1208" d="M47 0l1032 1202q2 0 7.5 3t10.5 5t11 2t17.5 3.5t19.5 5.5l39 8q12 2 28 6l21 -29l-1028 -1204q-16 -8 -31 -10q-6 0 -18.5 -4t-18.5 -4t-19.5 -2t-19.5 -5q-8 -2 -18 -5t-12 -3zM125 637l6 45q37 2 72 10q6 2 16 4t17.5 3t13.5 3q18 6 24 13q8 8 9 10l57 344q2 12 2 29 q0 14 -4 18q-6 6 -35 6t-100 -12l-10 43q8 0 65 14q27 6 84 23q43 12 82 24q41 12 59 21l23 -23l-80 -487q0 -6 4 -10q8 -8 19 -13q4 -2 38 -10q31 -8 64 -10l-6 -45h-420zM606 178l316 381q20 6 30.5 8t18.5 5t18 6q6 2 18.5 5t18.5 5q18 6 33 10l20 -23l-55 -344h76 l10 -16l-33 -33l-33 -24h-32l-15 -88q0 -10 13 -15q10 -4 57 -14l-6 -41h-324l6 41l58 8q10 2 37 8l16 9q6 4 6 8l14 84h-247zM737 231h150l37 230z" />
<glyph unicode="&#xbd;" horiz-adv-x="1208" d="M47 0l1032 1202q2 0 7.5 3t10.5 5t11 2t17.5 3.5t19.5 5.5l39 8q12 2 28 6l21 -29l-1028 -1204q-16 -8 -31 -10q-6 0 -18.5 -4t-18.5 -4t-19.5 -2t-19.5 -5q-8 -2 -18 -5t-12 -3zM125 637l6 45q37 2 72 10q6 2 16 4t17.5 3t13.5 3q18 6 24 13q8 8 9 10l57 344q2 12 2 29 q0 14 -4 18q-6 6 -35 6t-100 -12l-10 43q8 0 65 14q27 6 84 23q43 12 82 24q41 12 59 21l23 -23l-80 -487q0 -6 4 -10q8 -8 19 -13q4 -2 38 -10q31 -8 64 -10l-6 -45h-420zM649 37q119 102 174 153q63 61 115 119q43 49 66 90q20 39 20 70q0 35 -14.5 49t-46.5 14 q-20 0 -35 -8q-10 -6 -23 -22q-8 -12 -12 -29q-2 -10 -2 -35q-4 -2 -27 -10q-6 -2 -19.5 -4t-19.5 -4l-39 -10q-25 -4 -30 -4l-15 38q2 25 27 52q23 25 59 47q35 20 84 37q43 14 101 14q33 0 63 -6q35 -6 53 -17q23 -12 39 -30q14 -16 15 -49q0 -20 -6 -41q-4 -12 -23 -43 q-16 -25 -41 -54q-28 -31 -68 -67l-96 -86l-129 -111h203q18 0 31 16q14 16 22 35q10 25 17 52l47 -13l-37 -180h-443z" />
<glyph unicode="&#xbe;" horiz-adv-x="1208" d="M47 0l1032 1202q2 0 7.5 3t10.5 5t11 2t17.5 3.5t19.5 5.5l39 8q12 2 28 6l21 -29l-1028 -1204q-16 -8 -31 -10q-6 0 -18.5 -4t-18.5 -4t-19.5 -2t-19.5 -5q-8 -2 -18 -5t-12 -3zM102 705l33 51q45 -37 82 -47q41 -12 82 -13q29 0 47 9q25 10 41 26q20 20 29 43 q10 27 10 55q0 47 -26.5 70t-67.5 23h-21q-4 0 -24 -4l-4 49q160 33 159 145q0 33 -12 45t-37 12q-29 0 -45 -18q-18 -23 -16 -57q-12 -6 -31 -13l-37 -12q-10 -4 -39 -8q-25 -4 -30 -4l-15 35q2 20 23 43q23 25 53 45q33 20 78 37q41 14 92 14q45 0 82 -10q33 -8 51 -25 q20 -16 29 -37q8 -18 8 -43q0 -49 -39 -88q-33 -33 -92 -55q59 -6 88 -45t29 -86q0 -39 -25 -84q-23 -41 -61 -72q-37 -29 -90 -47q-47 -16 -109 -16q-31 0 -47 4q-8 2 -51 16q-18 6 -52 27q-27 17 -45 35zM606 178l316 381q20 6 30.5 8t18.5 5t18 6q6 2 18.5 5t18.5 5 q18 6 33 10l20 -23l-55 -344h76l10 -16l-33 -33l-33 -24h-32l-15 -88q0 -10 13 -15q10 -4 57 -14l-6 -41h-324l6 41l58 8q10 2 37 8l16 9q6 4 6 8l14 84h-247zM737 231h150l37 230z" />
<glyph unicode="&#xbf;" horiz-adv-x="899" d="M-37 -287q0 83 31 148q33 72 74 119q46 55 98 104q10 8 47 42t55 52q55 59 82 101q35 53 43 114l10 86q16 12 25 15q6 2 16.5 7l14.5 7l33 12q25 10 26 10l25 -20l-6 -125q-3 -61 -25 -117q-20 -51 -55 -102q-45 -66 -70 -96q-49 -61 -70 -93q-31 -45 -53 -98 q-20 -47 -20 -108q0 -27 8 -72q6 -37 20 -59q16 -27 37 -41.5t49 -14.5q33 0 52 17q27 23 37 49t14 71q4 41 -6 91q8 4 29.5 11l27.5 9q23 8 72 21q6 2 32.5 9t38.5 9q8 2 56 8l30 -41q0 -63 -34 -129q-35 -68 -99 -119q-72 -57 -151 -88q-86 -33 -195 -32q-72 0 -127 18 q-57 18 -92 51q-37 35 -59 78q-21 41 -21 96zM340 727q0 33 12 70q12 39 37 65q29 31 64 49q37 18 86 19q70 0 100 -33q33 -37 33 -86q0 -37 -15 -68q-18 -41 -39 -63q-29 -31 -63 -49q-37 -18 -84 -19q-66 0 -98.5 33t-32.5 82z" />
<glyph unicode="&#xc0;" horiz-adv-x="1208" d="M-55 0l12 84q65 12 98 25q35 12 47 43l461 1044q41 33 62 43q23 12 67 33q31 14 66 26l32.5 10.5t28.5 8.5l232 -1165q2 -14 8 -25q6 -12 16 -20.5t31 -14.5q14 -4 47 -8l-10 -84h-486l11 84q80 6 100 18q29 16 23 50l-54 272h-366l-121 -272q-12 -31 14 -46 q23 -12 105 -22l-11 -84h-413zM428 555h285l-90 449zM389 1568l16 68q12 8 49 26l60 31l57 27l25.5 10t17.5 6l273 -323l-33 -45q-18 -25 -33 -33z" />
<glyph unicode="&#xc1;" horiz-adv-x="1208" d="M-55 0l12 84q65 12 98 25q35 12 47 43l461 1044q41 33 62 43q23 12 67 33q31 14 66 26l32.5 10.5t28.5 8.5l232 -1165q2 -14 8 -25q6 -12 16 -20.5t31 -14.5q14 -4 47 -8l-10 -84h-486l11 84q80 6 100 18q29 16 23 50l-54 272h-366l-121 -272q-12 -31 14 -46 q23 -12 105 -22l-11 -84h-413zM428 555h285l-90 449zM555 1413l342 323q10 -4 47 -24q12 -6 26.5 -12.5t26.5 -14.5q10 -6 17.5 -10l15.5 -8.5t16 -8.5q12 -6 21.5 -13t15.5 -9v-68l-475 -233q-12 8 -28 33q-17 27 -25 45z" />
<glyph unicode="&#xc2;" horiz-adv-x="1208" d="M-55 0l12 84q65 12 98 25q35 12 47 43l461 1044q41 33 62 43q23 12 67 33q31 14 66 26l32.5 10.5t28.5 8.5l232 -1165q2 -14 8 -25q6 -12 16 -20.5t31 -14.5q14 -4 47 -8l-10 -84h-486l11 84q80 6 100 18q29 16 23 50l-54 272h-366l-121 -272q-12 -31 14 -46 q23 -12 105 -22l-11 -84h-413zM428 555h285l-90 449zM415 1400l295 312h133l211 -312q-20 -29 -30 -39q-18 -18 -33 -26l-242 166l-280 -166l-27 26q-19 19 -27 39z" />
<glyph unicode="&#xc3;" horiz-adv-x="1208" d="M-55 0l12 84q65 12 98 25q35 12 47 43l461 1044q41 33 62 43q23 12 67 33q31 14 66 26l32.5 10.5t28.5 8.5l232 -1165q2 -14 8 -25q6 -12 16 -20.5t31 -14.5q14 -4 47 -8l-10 -84h-486l11 84q80 6 100 18q29 16 23 50l-54 272h-366l-121 -272q-12 -31 14 -46 q23 -12 105 -22l-11 -84h-413zM428 555h285l-90 449zM340 1359l53 93q25 43 70 98q39 49 80 78q43 31 88 30.5t84 -16.5q33 -14 71 -35q45 -25 66 -35q33 -16 65 -16q43 0 76 27q34 28 74 86l74 -33q-10 -18 -54 -92q-20 -35 -69 -97q-39 -49 -80 -77q-43 -31 -88 -31 q-41 0 -80 16q-25 10 -70 35q-8 4 -21.5 12.5t-24.5 14.5t-21 10q-31 14 -74 14q-20 0 -39 -6q-12 -4 -35 -22q-16 -14 -35 -35q-8 -8 -38 -49z" />
<glyph unicode="&#xc4;" horiz-adv-x="1208" d="M-55 0l12 84q65 12 98 25q35 12 47 43l461 1044q41 33 62 43q23 12 67 33q31 14 66 26l32.5 10.5t28.5 8.5l232 -1165q2 -14 8 -25q6 -12 16 -20.5t31 -14.5q14 -4 47 -8l-10 -84h-486l11 84q80 6 100 18q29 16 23 50l-54 272h-366l-121 -272q-12 -31 14 -46 q23 -12 105 -22l-11 -84h-413zM428 555h285l-90 449zM414 1466q0 29 12 63q16 43 33 66q23 29 53 47q35 20 72 20q27 0 47 -10q18 -9 31 -24q14 -18 20.5 -37t6.5 -39q0 -33 -13 -68q-14 -41 -33 -63q-20 -27 -55 -47q-31 -18 -71 -19q-29 0 -46 8q-18 10 -32 27 q-12 14 -19 35q-6 18 -6 41zM807 1466q0 35 11 63q14 39 34 66q25 31 52 47q35 20 71 20q27 0 47 -10q23 -10 33 -24q10 -12 19 -37q6 -18 6 -39q0 -39 -11 -68q-12 -35 -34.5 -63.5t-53 -47t-71.5 -18.5q-31 0 -47.5 8.5t-30.5 26.5q-12 14 -19 35q-6 18 -6 41z" />
<glyph unicode="&#xc5;" horiz-adv-x="1208" d="M-55 0l12 84q65 12 98 25q35 12 47 43l461 1044q41 33 62 43q23 12 67 33q31 14 66 26l32.5 10.5t28.5 8.5l232 -1165q2 -14 8 -25q6 -12 16 -20.5t31 -14.5q14 -4 47 -8l-10 -84h-486l11 84q80 6 100 18q29 16 23 50l-54 272h-366l-121 -272q-12 -31 14 -46 q23 -12 105 -22l-11 -84h-413zM428 555h285l-90 449zM547 1497q0 47 18 98q16 47 53 94q31 39 82 70q45 27 101 26q37 0 67 -12q25 -10 49 -35q20 -20 30.5 -51t10.5 -59q0 -49 -20 -97q-25 -57 -55 -92q-37 -43 -84 -69.5t-105 -26.5q-37 0 -65 12q-25 10 -45 35 q-20 23 -29 49q-8 25 -8 58zM686 1540q0 -31 14.5 -47.5t32.5 -16.5q14 0 29 10q18 14 24 25q12 20 17 35q6 23 6 45q0 25 -14 43q-12 16 -31 16t-33 -8q-12 -8 -22 -25q-16 -27 -19 -34q-4 -14 -4 -43z" />
<glyph unicode="&#xc6;" horiz-adv-x="1556" d="M-41 0l12 84q63 10 90 22q33 14 50 46l483 942q8 16 8 28q0 10 -14 21q-6 4 -41 16q-27 8 -72 19l10 82h1067l33 -35q-2 -8 -4 -17.5l-5 -25l-5 -25.5q-12 -57 -21 -86q-4 -12 -11 -41t-11 -43q-12 -43 -21 -57h-80q8 86 -2 145q-10 53 -47 53h-303l-53 -393h367l28 -39 l-22 -32q-6 -10 -14.5 -19.5t-14.5 -19.5q-14 -20 -29 -39q-8 -12 -22 -27q-25 31 -60 43q-37 12 -75 12h-174l-58 -419q-2 -12 4 -27q6 -10 25 -21q18 -9 55 -12q74 -6 98 -6h78q37 0 76 14q33 12 59 39q31 31 54 70q33 59 53 100l74 -28l-23 -93l-24 -98q-6 -23 -10.5 -43 t-10.5 -39q-10 -41 -14 -51h-903l10 84q70 16 96 29q31 14 35 30l65 471h-233l-240 -462q-16 -29 2 -46q14 -12 84 -22l-12 -84h-387zM571 735h191l49 373q0 12 -2 14q-4 4 -14 4q-8 0 -19 -10q-14 -14 -20 -26z" />
<glyph unicode="&#xc7;" horiz-adv-x="1054" d="M55 459q0 98 20.5 192t61.5 189q39 92 103 176q59 80 147 151q45 35 82 52q57 27 96 38q51 16 101 25q47 8 98 8q55 0 98 -8q33 -6 94 -22q43 -12 82 -31q37 -18 58 -39q2 -2 -4 -21q-4 -12 -19 -41q-8 -16 -28.5 -53t-30.5 -53q-20 -33 -31 -47q-18 -27 -22 -29l-70 19 q-16 45 -29 67q-20 37 -43 60q-25 27 -59 41q-37 16 -74 16q-41 0 -71.5 -8t-73.5 -41q-59 -45 -105 -123q-39 -68 -65 -156q-23 -78 -33 -162q-10 -88 -10 -143q0 -113 26 -180q25 -66 70 -113q37 -41 88 -59q49 -18 90 -19q27 0 57 7q49 10 72 18q40 15 92 43 q45 23 115 74q4 -2 10 -15q2 -4 6 -11t6.5 -11t10.5 -25q2 -10 6 -14q-63 -63 -135 -113q-70 -47 -131 -73q-63 -27 -119 -39q-14 -4 -51 -9v-2q0 -4 -1 -13t-3 -13l-7 -25q-2 -8 -6 -16q33 0 58 -12q29 -14 41 -29q16 -20 22 -41q8 -29 8 -47q0 -35 -16 -68 q-14 -27 -45 -55q-31 -27 -66 -43q-33 -16 -86 -23q-49 -6 -96 2q-55 10 -104 33l-2 78q31 -12 69 -16q31 -2 58 4q25 6 38 20q12 12 13 31q0 20 -19 33q-20 14 -45 10q39 78 54 113q15 37 24 79q-61 6 -113 27q-76 33 -137 96q-55 57 -90 152q-35 92 -35 207z" />
<glyph unicode="&#xc8;" horiz-adv-x="1028" d="M-10 0l10 84q78 18 100 29q31 14 35 30l133 971q3 12 -24 31q-25 16 -92 33l10 82h844l34 -35q-2 -8 -4 -17.5l-5 -25l-5 -25.5q-6 -29 -22 -86q-4 -12 -11.5 -41t-11.5 -43q-16 -53 -18 -57h-80q4 36 3 67q0 47 -7 80q-12 53 -45 53h-304l-55 -395h369l28 -39 q-2 -4 -22 -32l-29 -41l-28 -37q-18 -23 -25 -27q-16 20 -27 27q-20 12 -34 16q-27 8 -50 10q-18 2 -65 2h-133l-58 -419q-2 -12 5 -27q6 -12 22 -21q18 -8 57 -12q74 -6 99 -6h82q39 0 75 14q35 14 60 39q27 27 51 70q20 37 51 100l74 -28q-14 -72 -21 -93l-24 -98l-21 -82 q-6 -27 -16 -51h-905zM301 1568l16 68q12 8 49 26l60 31l57 27l25.5 10t17.5 6l273 -323l-33 -45q-18 -25 -33 -33z" />
<glyph unicode="&#xc9;" horiz-adv-x="1028" d="M-10 0l10 84q78 18 100 29q31 14 35 30l133 971q3 12 -24 31q-25 16 -92 33l10 82h844l34 -35q-2 -8 -4 -17.5l-5 -25l-5 -25.5q-6 -29 -22 -86q-4 -12 -11.5 -41t-11.5 -43q-16 -53 -18 -57h-80q4 36 3 67q0 47 -7 80q-12 53 -45 53h-304l-55 -395h369l28 -39 q-2 -4 -22 -32l-29 -41l-28 -37q-18 -23 -25 -27q-16 20 -27 27q-20 12 -34 16q-27 8 -50 10q-18 2 -65 2h-133l-58 -419q-2 -12 5 -27q6 -12 22 -21q18 -8 57 -12q74 -6 99 -6h82q39 0 75 14q35 14 60 39q27 27 51 70q20 37 51 100l74 -28q-14 -72 -21 -93l-24 -98l-21 -82 q-6 -27 -16 -51h-905zM467 1413l342 323q10 -4 47 -24q12 -6 26.5 -12.5t26.5 -14.5q10 -6 17.5 -10l15.5 -8.5t16 -8.5q12 -6 21.5 -13t15.5 -9v-68l-475 -233q-12 8 -28 33q-17 27 -25 45z" />
<glyph unicode="&#xca;" horiz-adv-x="1028" d="M-10 0l10 84q78 18 100 29q31 14 35 30l133 971q3 12 -24 31q-25 16 -92 33l10 82h844l34 -35q-2 -8 -4 -17.5l-5 -25l-5 -25.5q-6 -29 -22 -86q-4 -12 -11.5 -41t-11.5 -43q-16 -53 -18 -57h-80q4 36 3 67q0 47 -7 80q-12 53 -45 53h-304l-55 -395h369l28 -39 q-2 -4 -22 -32l-29 -41l-28 -37q-18 -23 -25 -27q-16 20 -27 27q-20 12 -34 16q-27 8 -50 10q-18 2 -65 2h-133l-58 -419q-2 -12 5 -27q6 -12 22 -21q18 -8 57 -12q74 -6 99 -6h82q39 0 75 14q35 14 60 39q27 27 51 70q20 37 51 100l74 -28q-14 -72 -21 -93l-24 -98l-21 -82 q-6 -27 -16 -51h-905zM325 1400l295 312h133l211 -312q-20 -29 -30 -39q-18 -18 -33 -26l-242 166l-280 -166l-27 26q-19 19 -27 39z" />
<glyph unicode="&#xcb;" horiz-adv-x="1028" d="M-10 0l10 84q78 18 100 29q31 14 35 30l133 971q3 12 -24 31q-25 16 -92 33l10 82h844l34 -35q-2 -8 -4 -17.5l-5 -25l-5 -25.5q-6 -29 -22 -86q-4 -12 -11.5 -41t-11.5 -43q-16 -53 -18 -57h-80q4 36 3 67q0 47 -7 80q-12 53 -45 53h-304l-55 -395h369l28 -39 q-2 -4 -22 -32l-29 -41l-28 -37q-18 -23 -25 -27q-16 20 -27 27q-20 12 -34 16q-27 8 -50 10q-18 2 -65 2h-133l-58 -419q-2 -12 5 -27q6 -12 22 -21q18 -8 57 -12q74 -6 99 -6h82q39 0 75 14q35 14 60 39q27 27 51 70q20 37 51 100l74 -28q-14 -72 -21 -93l-24 -98l-21 -82 q-6 -27 -16 -51h-905zM326 1466q0 29 12 63q16 43 33 66q23 29 53 47q35 20 72 20q27 0 47 -10q18 -9 31 -24q14 -18 20.5 -37t6.5 -39q0 -33 -13 -68q-14 -41 -33 -63q-20 -27 -55 -47q-31 -18 -71 -19q-29 0 -46 8q-18 10 -32 27q-12 14 -19 35q-6 18 -6 41zM719 1466 q0 35 11 63q14 39 34 66q25 31 52 47q35 20 71 20q27 0 47 -10q23 -10 33 -24q10 -12 19 -37q6 -18 6 -39q0 -39 -11 -68q-12 -35 -34.5 -63.5t-53 -47t-71.5 -18.5q-31 0 -47.5 8.5t-30.5 26.5q-12 14 -19 35q-6 18 -6 41z" />
<glyph unicode="&#xcc;" horiz-adv-x="651" d="M10 0l10 84q74 18 99 29q31 14 35 30l133 971q3 12 -25 31q-25 16 -92 33l12 82h510l-10 -82q-74 -18 -98 -31q-31 -16 -35 -33l-133 -971q-2 -10 24 -28q20 -14 92 -31l-12 -84h-510zM109 1568l16 68q12 8 49 26l60 31l57 27l25.5 10t17.5 6l273 -323l-33 -45 q-18 -25 -33 -33z" />
<glyph unicode="&#xcd;" horiz-adv-x="651" d="M10 0l10 84q74 18 99 29q31 14 35 30l133 971q3 12 -25 31q-25 16 -92 33l12 82h510l-10 -82q-74 -18 -98 -31q-31 -16 -35 -33l-133 -971q-2 -10 24 -28q20 -14 92 -31l-12 -84h-510zM274 1413l342 323q10 -4 47 -24q12 -6 26.5 -12.5t26.5 -14.5q10 -6 17.5 -10 l15.5 -8.5t16 -8.5q12 -6 21.5 -13t15.5 -9v-68l-475 -233q-12 8 -28 33q-17 27 -25 45z" />
<glyph unicode="&#xce;" horiz-adv-x="651" d="M10 0l10 84q74 18 99 29q31 14 35 30l133 971q3 12 -25 31q-25 16 -92 33l12 82h510l-10 -82q-74 -18 -98 -31q-31 -16 -35 -33l-133 -971q-2 -10 24 -28q20 -14 92 -31l-12 -84h-510zM133 1400l295 312h133l211 -312q-20 -29 -30 -39q-18 -18 -33 -26l-242 166 l-280 -166l-27 26q-19 19 -27 39z" />
<glyph unicode="&#xcf;" horiz-adv-x="651" d="M10 0l10 84q74 18 99 29q31 14 35 30l133 971q3 12 -25 31q-25 16 -92 33l12 82h510l-10 -82q-74 -18 -98 -31q-31 -16 -35 -33l-133 -971q-2 -10 24 -28q20 -14 92 -31l-12 -84h-510zM133 1466q0 29 12 63q16 43 33 66q23 29 53 47q35 20 72 20q27 0 47 -10 q18 -9 31 -24q14 -18 20.5 -37t6.5 -39q0 -33 -13 -68q-14 -41 -33 -63q-20 -27 -55 -47q-31 -18 -71 -19q-29 0 -46 8q-18 10 -32 27q-12 14 -19 35q-6 18 -6 41zM526 1466q0 35 11 63q14 39 34 66q25 31 52 47q35 20 71 20q27 0 47 -10q23 -10 33 -24q10 -12 19 -37 q6 -18 6 -39q0 -39 -11 -68q-12 -35 -34.5 -63.5t-53 -47t-71.5 -18.5q-31 0 -47.5 8.5t-30.5 26.5q-12 14 -19 35q-6 18 -6 41z" />
<glyph unicode="&#xd0;" horiz-adv-x="1236" d="M-10 0l10 84q70 16 96 29q31 14 35 30l62 453h-111l-29 31q2 6 10 22l8.5 12.5t8.5 14.5l16 29q4 8 7 12l6 8h102l59 424l-137 -23v103q16 4 123 24q43 8 129 21q63 8 127 12q82 4 115 4q156 0 266 -37q115 -37 182 -106q74 -74 107 -168q35 -100 35 -223q0 -84 -23 -178 q-23 -96 -64 -175q-47 -92 -102 -157q-59 -72 -139 -129q-76 -55 -170 -86q-92 -31 -199 -31h-530zM399 170q-4 -31 23 -43q25 -12 92.5 -12t124.5 24q51 20 104 72q49 45 84 104q33 55 60 127q20 57 35 142q14 86 14 143q0 108 -18 191q-18 80 -60 141q-39 57 -104 88 q-59 29 -160 29q-20 0 -30.5 -2.5t-28.5 -2.5l-62 -446h240l28 -35l-55 -94h-229z" />
<glyph unicode="&#xd1;" horiz-adv-x="1271" d="M-2 0l10 84q72 10 101 27q31 18 32 32l131 959q-12 16 -55 49q-25 20 -59 27l12 82h281q14 0 20 -3q12 -4 18 -10q4 -4 17 -24q4 -8 10 -18.5t12 -22.5l443 -830l104 762q0 4 -4 16q-2 6 -16 17q-2 2 -37 16q-16 8 -60 15l11 82h399l-10 -82q-68 -10 -101 -29 q-31 -18 -34 -35l-156 -1145q-47 2 -90 17q-47 14 -71.5 26.5t-49.5 36.5q-23 23 -33 41l-430 805l-102 -752q0 -8 4 -14t18 -16q2 -2 37 -17q8 -4 58 -12l-11 -84h-399zM387 1359l53 93q25 43 70 98q39 49 80 78q43 31 88 30.5t84 -16.5q33 -14 71 -35q45 -25 66 -35 q33 -16 65 -16q43 0 76 27q34 28 74 86l74 -33q-10 -18 -54 -92q-20 -35 -69 -97q-39 -49 -80 -77q-43 -31 -88 -31q-41 0 -80 16q-25 10 -70 35q-8 4 -21.5 12.5t-24.5 14.5t-21 10q-31 14 -74 14q-20 0 -39 -6q-12 -4 -35 -22q-16 -14 -35 -35q-8 -8 -38 -49z" />
<glyph unicode="&#xd2;" horiz-adv-x="1189" d="M70 485q0 157 49 289q49 135 129 244q51 66 94 106q51 47 115 86q59 37 133 58q78 23 155 22q104 0 191 -41q76 -37 135 -112q55 -70 82 -164q27 -92 27 -199q0 -74 -15 -143q-18 -84 -39 -146q-20 -57 -63 -137q-33 -61 -82 -123q-45 -57 -96 -100q-66 -55 -115 -82 q-51 -29 -127 -53q-61 -20 -131 -21q-100 0 -186 41q-80 39 -140 111q-53 66 -86 166q-30 94 -30 198zM342 532q0 -100 14 -172q16 -82 45 -133q31 -55 74 -85.5t100 -30.5q61 0 107 28q51 31 86 82q35 49 63 117q25 55 46 137q16 61 26 146q8 66 8 135q0 80 -16 157 q-14 74 -45 127q-29 53 -76 84q-45 31 -102 31q-55 0 -103 -29q-43 -27 -82 -77q-37 -49 -63.5 -110.5t-44.5 -133.5q-20 -80 -29 -139q-8 -64 -8 -134zM402 1568l16 68q12 8 49 26l60 31l57 27l25.5 10t17.5 6l273 -323l-33 -45q-18 -25 -33 -33z" />
<glyph unicode="&#xd3;" horiz-adv-x="1189" d="M70 485q0 157 49 289q49 135 129 244q51 66 94 106q51 47 115 86q59 37 133 58q78 23 155 22q104 0 191 -41q76 -37 135 -112q55 -70 82 -164q27 -92 27 -199q0 -74 -15 -143q-18 -84 -39 -146q-20 -57 -63 -137q-33 -61 -82 -123q-45 -57 -96 -100q-66 -55 -115 -82 q-51 -29 -127 -53q-61 -20 -131 -21q-100 0 -186 41q-80 39 -140 111q-53 66 -86 166q-30 94 -30 198zM342 532q0 -100 14 -172q16 -82 45 -133q31 -55 74 -85.5t100 -30.5q61 0 107 28q51 31 86 82q35 49 63 117q25 55 46 137q16 61 26 146q8 66 8 135q0 80 -16 157 q-14 74 -45 127q-29 53 -76 84q-45 31 -102 31q-55 0 -103 -29q-43 -27 -82 -77q-37 -49 -63.5 -110.5t-44.5 -133.5q-20 -80 -29 -139q-8 -64 -8 -134zM567 1413l342 323q10 -4 47 -24q12 -6 26.5 -12.5t26.5 -14.5q10 -6 17.5 -10l15.5 -8.5t16 -8.5q12 -6 21.5 -13 t15.5 -9v-68l-475 -233q-12 8 -28 33q-17 27 -25 45z" />
<glyph unicode="&#xd4;" horiz-adv-x="1189" d="M70 485q0 157 49 289q49 135 129 244q51 66 94 106q51 47 115 86q59 37 133 58q78 23 155 22q104 0 191 -41q76 -37 135 -112q55 -70 82 -164q27 -92 27 -199q0 -74 -15 -143q-18 -84 -39 -146q-20 -57 -63 -137q-33 -61 -82 -123q-45 -57 -96 -100q-66 -55 -115 -82 q-51 -29 -127 -53q-61 -20 -131 -21q-100 0 -186 41q-80 39 -140 111q-53 66 -86 166q-30 94 -30 198zM342 532q0 -100 14 -172q16 -82 45 -133q31 -55 74 -85.5t100 -30.5q61 0 107 28q51 31 86 82q35 49 63 117q25 55 46 137q16 61 26 146q8 66 8 135q0 80 -16 157 q-14 74 -45 127q-29 53 -76 84q-45 31 -102 31q-55 0 -103 -29q-43 -27 -82 -77q-37 -49 -63.5 -110.5t-44.5 -133.5q-20 -80 -29 -139q-8 -64 -8 -134zM428 1400l295 312h133l211 -312q-20 -29 -30 -39q-18 -18 -33 -26l-242 166l-280 -166l-27 26q-19 19 -27 39z" />
<glyph unicode="&#xd5;" horiz-adv-x="1189" d="M70 485q0 157 49 289q49 135 129 244q51 66 94 106q51 47 115 86q59 37 133 58q78 23 155 22q104 0 191 -41q76 -37 135 -112q55 -70 82 -164q27 -92 27 -199q0 -74 -15 -143q-18 -84 -39 -146q-20 -57 -63 -137q-33 -61 -82 -123q-45 -57 -96 -100q-66 -55 -115 -82 q-51 -29 -127 -53q-61 -20 -131 -21q-100 0 -186 41q-80 39 -140 111q-53 66 -86 166q-30 94 -30 198zM342 532q0 -100 14 -172q16 -82 45 -133q31 -55 74 -85.5t100 -30.5q61 0 107 28q51 31 86 82q35 49 63 117q25 55 46 137q16 61 26 146q8 66 8 135q0 80 -16 157 q-14 74 -45 127q-29 53 -76 84q-45 31 -102 31q-55 0 -103 -29q-43 -27 -82 -77q-37 -49 -63.5 -110.5t-44.5 -133.5q-20 -80 -29 -139q-8 -64 -8 -134zM352 1359l53 93q25 43 70 98q39 49 80 78q43 31 88 30.5t84 -16.5q33 -14 71 -35q45 -25 66 -35q33 -16 65 -16 q43 0 76 27q34 28 74 86l74 -33q-10 -18 -54 -92q-20 -35 -69 -97q-39 -49 -80 -77q-43 -31 -88 -31q-41 0 -80 16q-25 10 -70 35q-8 4 -21.5 12.5t-24.5 14.5t-21 10q-31 14 -74 14q-20 0 -39 -6q-12 -4 -35 -22q-16 -14 -35 -35q-8 -8 -38 -49z" />
<glyph unicode="&#xd6;" horiz-adv-x="1189" d="M70 485q0 157 49 289q49 135 129 244q51 66 94 106q51 47 115 86q59 37 133 58q78 23 155 22q104 0 191 -41q76 -37 135 -112q55 -70 82 -164q27 -92 27 -199q0 -74 -15 -143q-18 -84 -39 -146q-20 -57 -63 -137q-33 -61 -82 -123q-45 -57 -96 -100q-66 -55 -115 -82 q-51 -29 -127 -53q-61 -20 -131 -21q-100 0 -186 41q-80 39 -140 111q-53 66 -86 166q-30 94 -30 198zM342 532q0 -100 14 -172q16 -82 45 -133q31 -55 74 -85.5t100 -30.5q61 0 107 28q51 31 86 82q35 49 63 117q25 55 46 137q16 61 26 146q8 66 8 135q0 80 -16 157 q-14 74 -45 127q-29 53 -76 84q-45 31 -102 31q-55 0 -103 -29q-43 -27 -82 -77q-37 -49 -63.5 -110.5t-44.5 -133.5q-20 -80 -29 -139q-8 -64 -8 -134zM426 1466q0 29 12 63q16 43 33 66q23 29 53 47q35 20 72 20q27 0 47 -10q18 -9 31 -24q14 -18 20.5 -37t6.5 -39 q0 -33 -13 -68q-14 -41 -33 -63q-20 -27 -55 -47q-31 -18 -71 -19q-29 0 -46 8q-18 10 -32 27q-12 14 -19 35q-6 18 -6 41zM819 1466q0 35 11 63q14 39 34 66q25 31 52 47q35 20 71 20q27 0 47 -10q23 -10 33 -24q10 -12 19 -37q6 -18 6 -39q0 -39 -11 -68 q-12 -35 -34.5 -63.5t-53 -47t-71.5 -18.5q-31 0 -47.5 8.5t-30.5 26.5q-12 14 -19 35q-6 18 -6 41z" />
<glyph unicode="&#xd7;" horiz-adv-x="833" d="M41 281l4 34l264 246l-196 250l4 33q2 2 10 5t16 7q29 14 35 16l37 13q6 2 15.5 6t11.5 4l180 -227l242 227q4 -2 12 -5t12 -5l11.5 -4t9.5 -3t12 -6q12 -4 33 -16q14 -8 22 -12l-6 -33l-264 -250l199 -246l-7 -34q-2 -2 -9 -4.5t-17 -6.5l-37 -16q-18 -8 -35 -14 q-6 -2 -15.5 -6.5t-11.5 -4.5l-180 228l-241 -228q-4 2 -12.5 5.5t-12.5 5.5q-8 2 -31 14l-33 16q-10 4 -14 6.5t-8 4.5z" />
<glyph unicode="&#xd8;" horiz-adv-x="1187" d="M10 -14l148 178q-45 72 -66 149q-23 86 -22 172q0 157 49 289q49 135 129 244q51 66 94 106q51 47 115 86q59 37 133 58q78 23 155 22q80 0 148 -24q70 -25 119 -66l51 64q12 6 37 16q16 6 49 14q2 0 19.5 5.5t27.5 7.5q23 2 39 6l25 -37l-154 -189q37 -63 55 -145 q18 -80 19 -168q0 -74 -15 -143q-18 -84 -39 -146q-20 -57 -63 -137q-33 -61 -82 -123q-45 -57 -96 -100q-66 -55 -115 -82q-51 -29 -127 -53q-61 -20 -131 -21q-74 0 -141 23q-61 20 -115 61l-45 -55q-6 -6 -35 -16q-33 -12 -51.5 -16.5l-50.5 -12.5q-25 -6 -37 -6z M342 532q0 -47 2 -69.5t6 -63.5l510 619q-31 63 -76 100q-47 37 -112 37q-55 0 -103 -29q-43 -27 -82 -77q-37 -49 -63.5 -110.5t-44.5 -133.5q-20 -80 -29 -139q-8 -64 -8 -134zM399 229q31 -57 74 -87.5t102 -30.5q61 0 107 28q51 31 86 82q35 49 63 117q25 55 46 137 q16 61 26 146q8 66 8 135q0 6 -1 22.5t-1 22.5q0 16 -4 45z" />
<glyph unicode="&#xd9;" horiz-adv-x="1280" d="M158 1178l12 82h504l-10 -82q-72 -16 -97 -31q-35 -18 -37 -33l-88 -604q-4 -16 -8 -57q-2 -18 -2 -56q0 -139 59.5 -204.5t182.5 -65.5q68 0 112.5 24.5t79.5 71.5q31 43 51.5 108.5t28.5 137.5l92 645q0 8 -4 14.5t-18 16.5q-8 6 -33 16t-53 17l10 82h412l-13 -82 q-68 -16 -92 -31q-31 -18 -33 -33l-84 -602q-18 -132 -67 -233q-49 -102 -121 -170q-70 -66 -162 -105q-84 -35 -188 -35q-80 0 -158 25q-77 25 -135 74q-59 49 -92 118q-37 78 -37 162q0 47 10 115l92 651q0 12 -24 31q-22 17 -90 33zM447 1568l16 68q12 8 49 26l60 31 l57 27l25.5 10t17.5 6l273 -323l-33 -45q-18 -25 -33 -33z" />
<glyph unicode="&#xda;" horiz-adv-x="1280" d="M158 1178l12 82h504l-10 -82q-72 -16 -97 -31q-35 -18 -37 -33l-88 -604q-4 -16 -8 -57q-2 -18 -2 -56q0 -139 59.5 -204.5t182.5 -65.5q68 0 112.5 24.5t79.5 71.5q31 43 51.5 108.5t28.5 137.5l92 645q0 8 -4 14.5t-18 16.5q-8 6 -33 16t-53 17l10 82h412l-13 -82 q-68 -16 -92 -31q-31 -18 -33 -33l-84 -602q-18 -132 -67 -233q-49 -102 -121 -170q-70 -66 -162 -105q-84 -35 -188 -35q-80 0 -158 25q-77 25 -135 74q-59 49 -92 118q-37 78 -37 162q0 47 10 115l92 651q0 12 -24 31q-22 17 -90 33zM612 1413l342 323q10 -4 47 -24 q12 -6 26.5 -12.5t26.5 -14.5q10 -6 17.5 -10l15.5 -8.5t16 -8.5q12 -6 21.5 -13t15.5 -9v-68l-475 -233q-12 8 -28 33q-17 27 -25 45z" />
<glyph unicode="&#xdb;" horiz-adv-x="1280" d="M158 1178l12 82h504l-10 -82q-72 -16 -97 -31q-35 -18 -37 -33l-88 -604q-4 -16 -8 -57q-2 -18 -2 -56q0 -139 59.5 -204.5t182.5 -65.5q68 0 112.5 24.5t79.5 71.5q31 43 51.5 108.5t28.5 137.5l92 645q0 8 -4 14.5t-18 16.5q-8 6 -33 16t-53 17l10 82h412l-13 -82 q-68 -16 -92 -31q-31 -18 -33 -33l-84 -602q-18 -132 -67 -233q-49 -102 -121 -170q-70 -66 -162 -105q-84 -35 -188 -35q-80 0 -158 25q-77 25 -135 74q-59 49 -92 118q-37 78 -37 162q0 47 10 115l92 651q0 12 -24 31q-22 17 -90 33zM473 1400l295 312h133l211 -312 q-20 -29 -30 -39q-18 -18 -33 -26l-242 166l-280 -166l-27 26q-19 19 -27 39z" />
<glyph unicode="&#xdc;" horiz-adv-x="1280" d="M158 1178l12 82h504l-10 -82q-72 -16 -97 -31q-35 -18 -37 -33l-88 -604q-4 -16 -8 -57q-2 -18 -2 -56q0 -139 59.5 -204.5t182.5 -65.5q68 0 112.5 24.5t79.5 71.5q31 43 51.5 108.5t28.5 137.5l92 645q0 8 -4 14.5t-18 16.5q-8 6 -33 16t-53 17l10 82h412l-13 -82 q-68 -16 -92 -31q-31 -18 -33 -33l-84 -602q-18 -132 -67 -233q-49 -102 -121 -170q-70 -66 -162 -105q-84 -35 -188 -35q-80 0 -158 25q-77 25 -135 74q-59 49 -92 118q-37 78 -37 162q0 47 10 115l92 651q0 12 -24 31q-22 17 -90 33zM471 1466q0 29 12 63q16 43 33 66 q23 29 53 47q35 20 72 20q27 0 47 -10q18 -9 31 -24q14 -18 20.5 -37t6.5 -39q0 -33 -13 -68q-14 -41 -33 -63q-20 -27 -55 -47q-31 -18 -71 -19q-29 0 -46 8q-18 10 -32 27q-12 14 -19 35q-6 18 -6 41zM864 1466q0 35 11 63q14 39 34 66q25 31 52 47q35 20 71 20 q27 0 47 -10q23 -10 33 -24q10 -12 19 -37q6 -18 6 -39q0 -39 -11 -68q-12 -35 -34.5 -63.5t-53 -47t-71.5 -18.5q-31 0 -47.5 8.5t-30.5 26.5q-12 14 -19 35q-6 18 -6 41z" />
<glyph unicode="&#xdd;" horiz-adv-x="1177" d="M123 1155l6 84q29 4 66 10q47 8 75 11q25 2 70 6t51 4q28 0 55 -13q27 -12 41 -36q29 -53 56 -113q51 -119 57 -135q33 -86 53 -148q6 -23 23.5 -73l25.5 -74l267 432q16 27 -4 41q-25 18 -91 27l11 82h395l-10 -82q-70 -12 -96 -27q-31 -16 -48 -41l-376 -594l-50 -360 q0 -8 5 -15q6 -10 20 -18q23 -14 43 -21q33 -10 68 -18l-11 -84h-549l11 84q45 10 71 18q31 10 48 19q12 6 24 18q10 10 10 17l52 372q-18 66 -54 162l-61 162q-35 86 -62 145q-16 35 -57 113q-8 16 -12 20q-8 8 -23 15q-12 4 -39 8q-16 2 -61 2zM563 1413l342 323 q10 -4 47 -24q12 -6 26.5 -12.5t26.5 -14.5q10 -6 17.5 -10l15.5 -8.5t16 -8.5q12 -6 21.5 -13t15.5 -9v-68l-475 -233q-12 8 -28 33q-17 27 -25 45z" />
<glyph unicode="&#xde;" horiz-adv-x="1099" d="M-10 0l10 84q70 16 96 29q29 14 33 30l133 971q2 12 -22 31q-23 16 -90 33l12 82h540l-10 -82q-49 -10 -78 -19q-10 -2 -27.5 -7t-23.5 -7q-14 -4 -28 -15q-8 -6 -9 -16l-14 -94q53 10 141 10q98 0 178 -24q82 -25 136 -70q55 -45 86 -109q31 -61 30 -137q0 -84 -34 -166 q-31 -74 -97 -139q-59 -59 -149 -96q-84 -35 -195 -35q-45 0 -78 8q-43 10 -63 25l-10 114q37 -18 69 -24q23 -4 66 -4q46 0 86 18q39 18 70 55q29 33 47 89q18 52 18 116q0 68 -18 117q-20 55 -47 82q-29 29 -72 45q-33 12 -84 12q-31 0 -47 -2q-33 -4 -49 -8l-101 -754 q-2 -6 4.5 -12t22.5 -14q4 -2 47 -17q12 -4 74 -16l-11 -84h-542z" />
<glyph unicode="&#xdf;" horiz-adv-x="1161" d="M-170 -391q51 29 90 82t72 129q29 66 51 153q18 70 29 166l88 760q8 80 37 158q25 70 67 141q39 66 92 125q47 53 117 102q58 43 135 68q76 25 162 25q83 0 148 -25q61 -23 110 -70q41 -39 68 -94q25 -52 24 -104q0 -82 -24 -138q-27 -59 -58 -96q-27 -33 -75 -69 l-36 -27t-40 -31q-33 -27 -58 -57q-23 -29 -22 -76q0 -37 22 -65q27 -33 60 -58q49 -37 76 -55q35 -25 77 -64q27 -25 58 -77q25 -43 24 -101q0 -39 -16 -84q-10 -31 -45 -80q-25 -35 -70 -73q-41 -35 -90 -60q-55 -29 -100 -41q-49 -14 -111 -14q-39 0 -88 16 q-45 14 -84 39t-63 52q-25 28 -25 49q0 6 6 24q2 6 9.5 21.5l9.5 19.5l24 49q4 10 14.5 25.5t12.5 19.5q14 25 24 35q14 14 21 15q4 0 14 -17q6 -10 23 -43q12 -25 28 -53q25 -45 33 -55q23 -29 41 -43q23 -16 49 -17q22 0 43 6q25 6 41 21q20 16 31 41q12 29 12 69 q0 53 -22 95q-16 31 -60 69q-37 33 -75 58q-40 25 -74 55q-43 39 -59 68q-23 39 -23 90q0 57 23 102q18 37 57 76t72 61q40 28 73 62q35 35 56 75q23 45 22 109q0 47 -14 84q-14 39 -41 68q-27 31 -53 45q-29 16 -56 16q-63 0 -108 -33q-47 -35 -76 -90q-31 -59 -49 -133 q-16 -70 -27 -158l-88 -759q-12 -102 -61 -213q-43 -94 -113 -191q-61 -84 -143 -160q-68 -61 -152 -114z" />
<glyph unicode="&#xe0;" d="M33 305q0 80 20 154q20 76 60 145q37 68 92 129q49 53 127 109q59 39 131 65q80 29 170 29q43 0 82 -18q37 -16 78 -41q14 8 41.5 18t33.5 12q47 20 64 29l35 -76q-25 -20 -29 -24q-8 -8 -18 -25q-8 -12 -15 -37q-12 -45 -14 -53q-4 -18 -27 -137q-12 -66 -18 -119 l-6 -48t-6 -46q-4 -53 -5 -62q0 -20 5 -53q0 -4 12 -45q4 -18 16 -33q10 -12 23 -12q20 0 41 6q39 10 63 23l17 -76l-86 -60q-68 -43 -82 -51q-51 -27 -70 -35q-35 -14 -49 -14t-39 10q-23 10 -45 35q-20 23 -39 68q-20 49 -27 104q-45 -57 -69 -84q-41 -45 -74 -69 q-27 -20 -80 -46q-40 -18 -80 -18q-37 0 -78 18q-43 20 -75 62q-39 49 -58 106q-22 68 -22 160zM291 379q0 -52 6 -92q6 -39 18 -64q12 -23 27 -35t31 -12q14 0 30 8q23 12 46 31q35 31 57 57q53 63 72 88l12 89l14 96q4 23 7 46t7 46l15 78q-10 10 -58 47q-25 18 -55 18 q-40 0 -74 -18q-33 -18 -59 -51q-23 -29 -43 -72q-16 -35 -31 -86q-12 -43 -18 -90q-4 -31 -4 -84zM319 1372l41 55q31 8 45 11l72 12q12 2 35.5 7t34.5 7q23 4 45 4l118 -411q-29 -16 -47 -25q-12 -6 -45 -16z" />
<glyph unicode="&#xe1;" d="M33 305q0 80 20 154q20 76 60 145q37 68 92 129q49 53 127 109q59 39 131 65q80 29 170 29q43 0 82 -18q37 -16 78 -41q14 8 41.5 18t33.5 12q47 20 64 29l35 -76q-25 -20 -29 -24q-8 -8 -18 -25q-8 -12 -15 -37q-12 -45 -14 -53q-4 -18 -27 -137q-12 -66 -18 -119 l-6 -48t-6 -46q-4 -53 -5 -62q0 -20 5 -53q0 -4 12 -45q4 -18 16 -33q10 -12 23 -12q20 0 41 6q39 10 63 23l17 -76l-86 -60q-68 -43 -82 -51q-51 -27 -70 -35q-35 -14 -49 -14t-39 10q-23 10 -45 35q-20 23 -39 68q-20 49 -27 104q-45 -57 -69 -84q-41 -45 -74 -69 q-27 -20 -80 -46q-40 -18 -80 -18q-37 0 -78 18q-43 20 -75 62q-39 49 -58 106q-22 68 -22 160zM291 379q0 -52 6 -92q6 -39 18 -64q12 -23 27 -35t31 -12q14 0 30 8q23 12 46 31q35 31 57 57q53 63 72 88l12 89l14 96q4 23 7 46t7 46l15 78q-10 10 -58 47q-25 18 -55 18 q-40 0 -74 -18q-33 -18 -59 -51q-23 -29 -43 -72q-16 -35 -31 -86q-12 -43 -18 -90q-4 -31 -4 -84zM516 1071l221 397q12 0 43 -6t66 -12t65 -12q37 -8 39 -8l27 -66l-385 -348q-12 4 -19 8q-2 2 -10 6t-10 6q-12 8 -21 17q-12 12 -16 18z" />
<glyph unicode="&#xe2;" d="M33 305q0 80 20 154q20 76 60 145q37 68 92 129q49 53 127 109q59 39 131 65q80 29 170 29q43 0 82 -18q37 -16 78 -41q14 8 41.5 18t33.5 12q47 20 64 29l35 -76q-25 -20 -29 -24q-8 -8 -18 -25q-8 -12 -15 -37q-12 -45 -14 -53q-4 -18 -27 -137q-12 -66 -18 -119 l-6 -48t-6 -46q-4 -53 -5 -62q0 -20 5 -53q0 -4 12 -45q4 -18 16 -33q10 -12 23 -12q20 0 41 6q39 10 63 23l17 -76l-86 -60q-68 -43 -82 -51q-51 -27 -70 -35q-35 -14 -49 -14t-39 10q-23 10 -45 35q-20 23 -39 68q-20 49 -27 104q-45 -57 -69 -84q-41 -45 -74 -69 q-27 -20 -80 -46q-40 -18 -80 -18q-37 0 -78 18q-43 20 -75 62q-39 49 -58 106q-22 68 -22 160zM291 379q0 -52 6 -92q6 -39 18 -64q12 -23 27 -35t31 -12q14 0 30 8q23 12 46 31q35 31 57 57q53 63 72 88l12 89l14 96q4 23 7 46t7 46l15 78q-10 10 -58 47q-25 18 -55 18 q-40 0 -74 -18q-33 -18 -59 -51q-23 -29 -43 -72q-16 -35 -31 -86q-12 -43 -18 -90q-4 -31 -4 -84zM285 1081l303 381h154l203 -381q-14 -18 -37 -39q-12 -10 -39 -26l-230 215l-292 -215q-2 0 -5.5 4t-7.5 6q-12 8 -18 14q-2 4 -8.5 10.5t-8.5 10.5q-2 2 -14 20z" />
<glyph unicode="&#xe3;" d="M33 305q0 80 20 154q20 76 60 145q37 68 92 129q49 53 127 109q59 39 131 65q80 29 170 29q43 0 82 -18q37 -16 78 -41q14 8 41.5 18t33.5 12q47 20 64 29l35 -76q-25 -20 -29 -24q-8 -8 -18 -25q-8 -12 -15 -37q-12 -45 -14 -53q-4 -18 -27 -137q-12 -66 -18 -119 l-6 -48t-6 -46q-4 -53 -5 -62q0 -20 5 -53q0 -4 12 -45q4 -18 16 -33q10 -12 23 -12q20 0 41 6q39 10 63 23l17 -76l-86 -60q-68 -43 -82 -51q-51 -27 -70 -35q-35 -14 -49 -14t-39 10q-23 10 -45 35q-20 23 -39 68q-20 49 -27 104q-45 -57 -69 -84q-41 -45 -74 -69 q-27 -20 -80 -46q-40 -18 -80 -18q-37 0 -78 18q-43 20 -75 62q-39 49 -58 106q-22 68 -22 160zM291 379q0 -52 6 -92q6 -39 18 -64q12 -23 27 -35t31 -12q14 0 30 8q23 12 46 31q35 31 57 57q53 63 72 88l12 89l14 96q4 23 7 46t7 46l15 78q-10 10 -58 47q-25 18 -55 18 q-40 0 -74 -18q-33 -18 -59 -51q-23 -29 -43 -72q-16 -35 -31 -86q-12 -43 -18 -90q-4 -31 -4 -84zM215 1069l53 94q25 43 70 99q39 49 80 77q43 31 88 31t84 -16q33 -14 71 -35q8 -4 31 -17.5t35 -19.5q29 -14 65 -14q43 0 76 26q34 28 74 86l74 -32l-54 -93 q-25 -43 -69 -98q-35 -43 -80 -76q-43 -31 -88 -30q-41 0 -80 16q-25 10 -70 34.5t-67 35.5q-37 16 -74 16q-14 0 -39 -8q-16 -6 -35 -21q-16 -14 -35 -34q-8 -8 -38 -50z" />
<glyph unicode="&#xe4;" d="M33 305q0 80 20 154q20 76 60 145q37 68 92 129q49 53 127 109q59 39 131 65q80 29 170 29q43 0 82 -18q37 -16 78 -41q14 8 41.5 18t33.5 12q47 20 64 29l35 -76q-25 -20 -29 -24q-8 -8 -18 -25q-8 -12 -15 -37q-12 -45 -14 -53q-4 -18 -27 -137q-12 -66 -18 -119 l-6 -48t-6 -46q-4 -53 -5 -62q0 -20 5 -53q0 -4 12 -45q4 -18 16 -33q10 -12 23 -12q20 0 41 6q39 10 63 23l17 -76l-86 -60q-68 -43 -82 -51q-51 -27 -70 -35q-35 -14 -49 -14t-39 10q-23 10 -45 35q-20 23 -39 68q-20 49 -27 104q-45 -57 -69 -84q-41 -45 -74 -69 q-27 -20 -80 -46q-40 -18 -80 -18q-37 0 -78 18q-43 20 -75 62q-39 49 -58 106q-22 68 -22 160zM291 379q0 -52 6 -92q6 -39 18 -64q12 -23 27 -35t31 -12q14 0 30 8q23 12 46 31q35 31 57 57q53 63 72 88l12 89l14 96q4 23 7 46t7 46l15 78q-10 10 -58 47q-25 18 -55 18 q-40 0 -74 -18q-33 -18 -59 -51q-23 -29 -43 -72q-16 -35 -31 -86q-12 -43 -18 -90q-4 -31 -4 -84zM299 1186q0 31 12 65q14 41 33 64q25 33 53 49q31 18 72 18q31 0 47.5 -8t30.5 -26.5t20 -34.5q6 -18 7 -41q0 -31 -13 -66q-14 -41 -33 -63q-20 -27 -55 -47.5t-71 -20.5 q-25 0 -46 10q-23 10 -32 25q-12 14 -19 35q-6 18 -6 41zM692 1186q0 37 11 65q12 35 34 64q27 35 52 49q31 18 71 18q31 0 47 -8q18 -10 33 -26q12 -14 19 -35q6 -18 6 -41q0 -37 -11 -66q-12 -35 -34.5 -63.5t-53.5 -46.5q-35 -20 -71 -21q-27 0 -47 10q-18 9 -31 25 q-12 14 -19 35q-6 18 -6 41z" />
<glyph unicode="&#xe5;" d="M33 305q0 80 20 154q20 76 60 145q37 68 92 129q49 53 127 109q59 39 131 65q80 29 170 29q43 0 82 -18q37 -16 78 -41q14 8 41.5 18t33.5 12q47 20 64 29l35 -76q-25 -20 -29 -24q-8 -8 -18 -25q-8 -12 -15 -37q-12 -45 -14 -53q-4 -18 -27 -137q-12 -66 -18 -119 l-6 -48t-6 -46q-4 -53 -5 -62q0 -20 5 -53q0 -4 12 -45q4 -18 16 -33q10 -12 23 -12q20 0 41 6q39 10 63 23l17 -76l-86 -60q-68 -43 -82 -51q-51 -27 -70 -35q-35 -14 -49 -14t-39 10q-23 10 -45 35q-20 23 -39 68q-20 49 -27 104q-45 -57 -69 -84q-41 -45 -74 -69 q-27 -20 -80 -46q-40 -18 -80 -18q-37 0 -78 18q-43 20 -75 62q-39 49 -58 106q-22 68 -22 160zM291 379q0 -52 6 -92q6 -39 18 -64q12 -23 27 -35t31 -12q14 0 30 8q23 12 46 31q35 31 57 57q53 63 72 88l12 89l14 96q4 23 7 46t7 46l15 78q-10 10 -58 47q-25 18 -55 18 q-40 0 -74 -18q-33 -18 -59 -51q-23 -29 -43 -72q-16 -35 -31 -86q-12 -43 -18 -90q-4 -31 -4 -84zM422 1178q0 47 18 98q16 47 53 94q31 39 82 70q45 27 101 26q37 0 67 -12q25 -10 49 -35q20 -20 30.5 -51t10.5 -59q0 -49 -20 -97q-25 -57 -55 -92q-37 -43 -84 -69.5 t-105 -26.5q-37 0 -65 12q-25 10 -45 35q-20 23 -29 49q-8 25 -8 58zM561 1221q0 -31 14.5 -47.5t32.5 -16.5q14 0 29 10q18 14 24 25q12 20 17 35q6 23 6 45q0 25 -14 43q-12 16 -31 16t-33 -8q-12 -8 -22 -25q-16 -27 -19 -34q-4 -14 -4 -43z" />
<glyph unicode="&#xe6;" horiz-adv-x="1323" d="M-6 305q0 88 18 154q25 86 60 145q41 72 94 129q49 53 127 109q59 39 131 65q80 29 168 29q39 0 70 -12q45 -18 59 -29q18 10 45 20q51 18 55 21l51 -45q-10 -10 -22 -19q-6 -4 -19 -16l-16 -16q-6 -9 -12 -25l37 31q29 23 57 35q51 23 68 28q51 16 71 21q37 6 66 6 q51 0 96 -16q41 -14 72 -39q27 -23 45 -58q14 -29 14 -63q0 -29 -6 -60q-6 -35 -25 -67q-20 -37 -55 -72q-37 -37 -96 -76q-76 -49 -148 -84q-84 -41 -211 -88q6 -43 23 -84q14 -37 35 -59q16 -18 41 -33q18 -10 41 -10q43 0 125 43q80 41 204 141q6 -4 13 -14q2 -4 7 -12.5 t7 -12.5q8 -14 14 -26l9 -17q-83 -71 -154 -123q-57 -43 -129 -83q-49 -29 -109 -48q-53 -16 -90 -16q-31 0 -71 12q-29 8 -78 43q-41 29 -72 74q-35 53 -49 111q-47 -66 -80 -99q-49 -51 -86 -75q-45 -33 -84 -49.5t-84 -16.5q-34 0 -73.5 18.5t-73.5 61.5q-39 49 -58 106 q-22 68 -22 160zM240 379q0 -51 10 -96q6 -31 22 -62q12 -25 28.5 -35t31.5 -10q20 0 78 41q53 39 137 141v9l6 34q8 49 12 76l13 82l12 80q8 57 10 66q-41 37 -61 53q-29 23 -60 22q-40 0 -73 -18q-31 -16 -62 -51q-25 -27 -45 -72q-20 -47 -33 -86q-16 -55 -20 -90 q-6 -45 -6 -84zM786 444q86 39 144 74q51 31 84 68q27 29 37 63.5t10 65.5q0 35 -20.5 55.5t-47.5 20.5q-20 0 -51 -18.5t-55 -49.5q-53 -63 -74 -127t-27 -152z" />
<glyph unicode="&#xe7;" horiz-adv-x="897" d="M78 322q0 82 12 135q14 66 47 133q31 63 82 125q47 55 123 106l35.5 20.5l32.5 18.5q33 20 82 37q51 18 90 28.5t92 10.5q41 0 80 -14q37 -12 65 -31l58 -37q29 -18 61 -29l-53 -53q-29 -31 -64 -57q-27 -23 -61 -45q-27 -18 -47 -19q-16 0 -35 21l-35 45q-6 8 -41 43 q-20 20 -51 20q-49 0 -88 -32q-37 -31 -66 -89q-25 -47 -41 -122q-14 -63 -14 -140q0 -123 37 -200q33 -70 90 -70q59 0 137 43q80 45 185 131l12 -16q4 -6 8 -13.5t8 -13.5q8 -12 17 -22q6 -12 10 -17q-63 -59 -146 -121q-65 -49 -122 -80q-51 -29 -105 -45q-2 -4 -2 -12 t-2 -12l-6 -25q-2 -8 -6 -16q33 0 57 -12q29 -14 41 -29q16 -20 23 -41q8 -29 8 -47q0 -35 -17 -68q-14 -27 -45 -55q-28 -25 -67 -43q-35 -16 -84 -22.5t-97 1.5q-59 10 -106 33v78q31 -12 70 -16q31 -2 57 4q23 6 37 20.5t14 30.5q0 18 -20 33q-20 12 -43 10q39 78 53 113 q8 20 20 61q-49 4 -84 16q-57 20 -96 60q-45 45 -72 112q-28 75 -28 175z" />
<glyph unicode="&#xe8;" horiz-adv-x="884" d="M43 303q0 77 18 148q16 59 56 135q29 55 84 121q43 51 110 108q20 16 58 41q29 18 73 39q27 12 84 29q43 12 86 12q57 0 107 -16q43 -14 74 -39q25 -18 43 -58q14 -29 14 -63q0 -27 -6 -58q-6 -29 -27 -67q-20 -37 -55 -72q-43 -43 -96 -78q-55 -35 -148 -82 q-84 -41 -207 -86q16 -94 51 -141q37 -49 84 -49q45 0 127 43q83 43 203 141q6 -2 15 -14q6 -8 14 -25q2 -4 7 -13t7 -13l8 -17q-92 -80 -149 -123q-53 -41 -127 -83q-49 -29 -109 -48q-53 -16 -98 -16t-96 18.5t-98 59.5q-43 37 -76 106q-31 65 -31 160zM305 446 q96 45 141 76q55 35 80 63.5t35 57.5q8 25 8 62q0 45 -16 63q-18 23 -45 23q-12 0 -21 -5l-28 -14q-10 -6 -31 -22q-14 -12 -27 -27q-27 -33 -39 -59q-20 -41 -28 -64q-12 -35 -19 -70q-8 -47 -10 -84zM278 1372l41 55q31 8 45 11l72 12q12 2 35.5 7t34.5 7q23 4 45 4 l118 -411q-29 -16 -47 -25q-12 -6 -45 -16z" />
<glyph unicode="&#xe9;" horiz-adv-x="884" d="M43 303q0 77 18 148q16 59 56 135q29 55 84 121q43 51 110 108q20 16 58 41q29 18 73 39q27 12 84 29q43 12 86 12q57 0 107 -16q43 -14 74 -39q25 -18 43 -58q14 -29 14 -63q0 -27 -6 -58q-6 -29 -27 -67q-20 -37 -55 -72q-43 -43 -96 -78q-55 -35 -148 -82 q-84 -41 -207 -86q16 -94 51 -141q37 -49 84 -49q45 0 127 43q83 43 203 141q6 -2 15 -14q6 -8 14 -25q2 -4 7 -13t7 -13l8 -17q-92 -80 -149 -123q-53 -41 -127 -83q-49 -29 -109 -48q-53 -16 -98 -16t-96 18.5t-98 59.5q-43 37 -76 106q-31 65 -31 160zM305 446 q96 45 141 76q55 35 80 63.5t35 57.5q8 25 8 62q0 45 -16 63q-18 23 -45 23q-12 0 -21 -5l-28 -14q-10 -6 -31 -22q-14 -12 -27 -27q-27 -33 -39 -59q-20 -41 -28 -64q-12 -35 -19 -70q-8 -47 -10 -84zM475 1071l221 397q12 0 43 -6t66 -12t65 -12q37 -8 39 -8l27 -66 l-385 -348q-12 4 -19 8q-2 2 -10 6t-10 6q-12 8 -21 17q-12 12 -16 18z" />
<glyph unicode="&#xea;" horiz-adv-x="884" d="M43 303q0 77 18 148q16 59 56 135q29 55 84 121q43 51 110 108q20 16 58 41q29 18 73 39q27 12 84 29q43 12 86 12q57 0 107 -16q43 -14 74 -39q25 -18 43 -58q14 -29 14 -63q0 -27 -6 -58q-6 -29 -27 -67q-20 -37 -55 -72q-43 -43 -96 -78q-55 -35 -148 -82 q-84 -41 -207 -86q16 -94 51 -141q37 -49 84 -49q45 0 127 43q83 43 203 141q6 -2 15 -14q6 -8 14 -25q2 -4 7 -13t7 -13l8 -17q-92 -80 -149 -123q-53 -41 -127 -83q-49 -29 -109 -48q-53 -16 -98 -16t-96 18.5t-98 59.5q-43 37 -76 106q-31 65 -31 160zM305 446 q96 45 141 76q55 35 80 63.5t35 57.5q8 25 8 62q0 45 -16 63q-18 23 -45 23q-12 0 -21 -5l-28 -14q-10 -6 -31 -22q-14 -12 -27 -27q-27 -33 -39 -59q-20 -41 -28 -64q-12 -35 -19 -70q-8 -47 -10 -84zM242 1081l303 381h154l203 -381q-14 -18 -37 -39q-12 -10 -39 -26 l-230 215l-292 -215q-2 0 -5.5 4t-7.5 6q-12 8 -18 14q-2 4 -8.5 10.5t-8.5 10.5q-2 2 -14 20z" />
<glyph unicode="&#xeb;" horiz-adv-x="884" d="M43 303q0 77 18 148q16 59 56 135q29 55 84 121q43 51 110 108q20 16 58 41q29 18 73 39q27 12 84 29q43 12 86 12q57 0 107 -16q43 -14 74 -39q25 -18 43 -58q14 -29 14 -63q0 -27 -6 -58q-6 -29 -27 -67q-20 -37 -55 -72q-43 -43 -96 -78q-55 -35 -148 -82 q-84 -41 -207 -86q16 -94 51 -141q37 -49 84 -49q45 0 127 43q83 43 203 141q6 -2 15 -14q6 -8 14 -25q2 -4 7 -13t7 -13l8 -17q-92 -80 -149 -123q-53 -41 -127 -83q-49 -29 -109 -48q-53 -16 -98 -16t-96 18.5t-98 59.5q-43 37 -76 106q-31 65 -31 160zM305 446 q96 45 141 76q55 35 80 63.5t35 57.5q8 25 8 62q0 45 -16 63q-18 23 -45 23q-12 0 -21 -5l-28 -14q-10 -6 -31 -22q-14 -12 -27 -27q-27 -33 -39 -59q-20 -41 -28 -64q-12 -35 -19 -70q-8 -47 -10 -84zM258 1186q0 31 12 65q14 41 33 64q25 33 53 49q31 18 72 18 q31 0 47.5 -8t30.5 -26.5t20 -34.5q6 -18 7 -41q0 -31 -13 -66q-14 -41 -33 -63q-20 -27 -55 -47.5t-71 -20.5q-25 0 -46 10q-23 10 -32 25q-12 14 -19 35q-6 18 -6 41zM651 1186q0 37 11 65q12 35 34 64q27 35 52 49q31 18 71 18q31 0 47 -8q18 -10 33 -26q12 -14 19 -35 q6 -18 6 -41q0 -37 -11 -66q-12 -35 -34.5 -63.5t-53.5 -46.5q-35 -20 -71 -21q-27 0 -47 10q-18 9 -31 25q-12 14 -19 35q-6 18 -6 41z" />
<glyph unicode="&#xec;" horiz-adv-x="587" d="M49 801l101 41q25 10 52 22.5t58 22.5l102 35q43 14 66 14q31 0 45 -18q16 -20 16 -66q0 -31 -6 -80q-2 -18 -9 -56t-9 -52l-23 -125l-22 -125l-17 -111q-8 -66 -8 -78q0 -25 8 -45q6 -14 23 -14q20 0 29 2q4 0 13 2t13 4q8 2 29 10l35 15l20 -76q-47 -29 -100 -57 l-103 -54q-37 -18 -94 -39q-41 -14 -73 -14q-35 0 -59.5 30.5t-24.5 86.5q0 31 6 80q2 23 16 108q2 14 23 121l11 66.5t9 54.5q16 100 17 104q8 61 8 70q0 20 -4 36.5t-9 20.5q-6 6 -12 8.5t-16 2.5q-4 0 -25 -5q-16 -4 -29 -8l-36 -12zM127 1372l41 55q31 8 45 11l72 12 q12 2 35.5 7t34.5 7q23 4 45 4l118 -411q-29 -16 -47 -25q-12 -6 -45 -16z" />
<glyph unicode="&#xed;" horiz-adv-x="587" d="M49 801l101 41q25 10 52 22.5t58 22.5l102 35q43 14 66 14q31 0 45 -18q16 -20 16 -66q0 -31 -6 -80q-2 -18 -9 -56t-9 -52l-23 -125l-22 -125l-17 -111q-8 -66 -8 -78q0 -25 8 -45q6 -14 23 -14q20 0 29 2q4 0 13 2t13 4q8 2 29 10l35 15l20 -76q-47 -29 -100 -57 l-103 -54q-37 -18 -94 -39q-41 -14 -73 -14q-35 0 -59.5 30.5t-24.5 86.5q0 31 6 80q2 23 16 108q2 14 23 121l11 66.5t9 54.5q16 100 17 104q8 61 8 70q0 20 -4 36.5t-9 20.5q-6 6 -12 8.5t-16 2.5q-4 0 -25 -5q-16 -4 -29 -8l-36 -12zM324 1071l221 397q12 0 43 -6t66 -12 t65 -12q37 -8 39 -8l27 -66l-385 -348q-12 4 -19 8q-2 2 -10 6t-10 6q-12 8 -21 17q-12 12 -16 18z" />
<glyph unicode="&#xee;" horiz-adv-x="587" d="M49 801l101 41q25 10 52 22.5t58 22.5l102 35q43 14 66 14q31 0 45 -18q16 -20 16 -66q0 -31 -6 -80q-2 -18 -9 -56t-9 -52l-23 -125l-22 -125l-17 -111q-8 -66 -8 -78q0 -25 8 -45q6 -14 23 -14q20 0 29 2q4 0 13 2t13 4q8 2 29 10l35 15l20 -76q-47 -29 -100 -57 l-103 -54q-37 -18 -94 -39q-41 -14 -73 -14q-35 0 -59.5 30.5t-24.5 86.5q0 31 6 80q2 23 16 108q2 14 23 121l11 66.5t9 54.5q16 100 17 104q8 61 8 70q0 20 -4 36.5t-9 20.5q-6 6 -12 8.5t-16 2.5q-4 0 -25 -5q-16 -4 -29 -8l-36 -12zM90 1081l303 381h154l203 -381 q-14 -18 -37 -39q-12 -10 -39 -26l-230 215l-292 -215q-2 0 -5.5 4t-7.5 6q-12 8 -18 14q-2 4 -8.5 10.5t-8.5 10.5q-2 2 -14 20z" />
<glyph unicode="&#xef;" horiz-adv-x="587" d="M49 801l101 41q25 10 52 22.5t58 22.5l102 35q43 14 66 14q31 0 45 -18q16 -20 16 -66q0 -31 -6 -80q-2 -18 -9 -56t-9 -52l-23 -125l-22 -125l-17 -111q-8 -66 -8 -78q0 -25 8 -45q6 -14 23 -14q20 0 29 2q4 0 13 2t13 4q8 2 29 10l35 15l20 -76q-47 -29 -100 -57 l-103 -54q-37 -18 -94 -39q-41 -14 -73 -14q-35 0 -59.5 30.5t-24.5 86.5q0 31 6 80q2 23 16 108q2 14 23 121l11 66.5t9 54.5q16 100 17 104q8 61 8 70q0 20 -4 36.5t-9 20.5q-6 6 -12 8.5t-16 2.5q-4 0 -25 -5q-16 -4 -29 -8l-36 -12zM106 1186q0 31 12 65q14 41 33 64 q25 33 53 49q31 18 72 18q31 0 47.5 -8t30.5 -26.5t20 -34.5q6 -18 7 -41q0 -31 -13 -66q-14 -41 -33 -63q-20 -27 -55 -47.5t-71 -20.5q-25 0 -46 10q-23 10 -32 25q-12 14 -19 35q-6 18 -6 41zM499 1186q0 37 11 65q12 35 34 64q27 35 52 49q31 18 71 18q31 0 47 -8 q18 -10 33 -26q12 -14 19 -35q6 -18 6 -41q0 -37 -11 -66q-12 -35 -34.5 -63.5t-53.5 -46.5q-35 -20 -71 -21q-27 0 -47 10q-18 9 -31 25q-12 14 -19 35q-6 18 -6 41z" />
<glyph unicode="&#xf0;" horiz-adv-x="983" d="M33 334q0 129 39 237q43 121 104 193q70 82 156 127q88 45 192 45q43 0 78 -20.5t64 -55.5q-14 63 -39 117q-25 55 -58 100l-211 -96q-45 4 -65 10q-51 14 -62 19l-6 45l246 112q-55 35 -100 37q-57 4 -127 -8v90l297 123q41 -25 88 -66q53 -45 76 -67l198 90 q49 -8 74 -14q41 -12 53 -17l2 -45l-246 -112q37 -53 68 -119q27 -55 43 -119q12 -51 21 -119q6 -59 6 -114q0 -111 -21 -201q-27 -113 -55 -180q-39 -86 -86 -152q-43 -59 -113 -115q-61 -49 -131 -73q-76 -27 -145 -27q-82 0 -150 29q-59 25 -106 80q-41 47 -64 118 q-20 64 -20 148zM293 408q0 -70 14 -125q15 -58 37 -99q20 -39 53 -63q29 -23 58 -23q39 0 69 19q29 16 54 51q27 35 43 76q18 41 30 90q14 51 23 98q8 49 12 96q-6 63 -26.5 108.5t-51.5 84.5q-33 39 -61 55q-35 18 -64 19q-55 0 -92 -37q-39 -39 -59.5 -92.5t-30.5 -124.5 q-8 -59 -8 -133z" />
<glyph unicode="&#xf1;" horiz-adv-x="1101" d="M27 803l65 26q14 6 41 16.5t35 12.5l78 29q39 14 71 24l58 19q25 6 37 6q10 0 22 -4q8 -2 15 -17q4 -8 8 -34q4 -29 4 -58q0 -8 -1 -21.5t-1 -19.5q0 -12 -4 -45q102 96 215 150q104 49 194 49q31 0 56 -6q23 -6 43 -23q16 -14 26 -47q8 -27 8 -78q0 -37 -6 -82 q-10 -78 -14 -100q-12 -70 -21 -106l-20 -107q-14 -72 -16 -92q-6 -43 -7 -70q0 -33 11 -47q10 -12 26.5 -12t22.5 2q12 4 20 6q4 2 13.5 5t11.5 5q8 4 17 7.5l20 7.5l28 -76q-76 -45 -98 -57l-104 -52q-41 -18 -97 -39q-45 -16 -71 -16q-35 0 -59.5 30.5t-24.5 86.5 q0 18 6 59l5 37q5 37 9 57q4 29 10.5 57.5t10.5 55.5q12 72 18 113q2 12 14 98q6 43 7 68q0 55 -9 73q-10 23 -36 23q-12 0 -35 -6q-16 -4 -45 -23q-33 -20 -54 -41q-31 -31 -53 -67q-33 -53 -47 -115q-12 -51 -33 -164q-4 -16 -7 -43t-5 -35q-4 -18 -8 -57q-4 -33 -4 -47 q0 -8 1 -22.5t1 -20.5l-29 -15q-20 -8 -45 -20l-53 -25q-16 -6 -30.5 -12l-24.5 -10l-22.5 -11.5t-20.5 -9.5l-29 -14l-43 41q16 78 39 205q4 27 33 201q16 98 24 167q8 66 8 109q0 29 -2 37q-4 16 -8 20t-12 9q-4 2 -17 2q-4 0 -24 -5q-14 -2 -33 -10q-29 -10 -39 -12z M252 1069l53 94q25 43 70 99q39 49 80 77q43 31 88 31t84 -16q33 -14 71 -35q8 -4 31 -17.5t35 -19.5q29 -14 65 -14q43 0 76 26q34 28 74 86l74 -32l-54 -93q-25 -43 -69 -98q-35 -43 -80 -76q-43 -31 -88 -30q-41 0 -80 16q-25 10 -70 34.5t-67 35.5q-37 16 -74 16 q-14 0 -39 -8q-16 -6 -35 -21q-16 -14 -35 -34q-8 -8 -38 -50z" />
<glyph unicode="&#xf2;" horiz-adv-x="923" d="M33 344q0 147 59 268q63 129 195 228q14 12 59 37q39 20 68 30q51 16 71 21q49 8 72 8q76 0 139.5 -28.5t106.5 -78t65 -118.5q23 -72 23 -152q0 -68 -19 -135q-23 -82 -49 -133q-34 -65 -80 -123q-45 -55 -102 -105q-29 -27 -57 -40q-12 -6 -70 -33q-23 -10 -68 -23 q-31 -8 -65 -8q-86 0 -145 29q-63 31 -108.5 82t-70.5 123q-24 69 -24 151zM297 428q0 -59 14 -127q12 -57 35 -102q25 -51 49 -72q27 -25 54 -25q49 0 83 35q37 37 58 88q18 47 28 121q10 72 11 127q0 77 -13 135q-12 61 -32 99q-23 41 -45.5 61t-51.5 20q-55 0 -90 -32 q-39 -37 -59 -84q-22 -52 -31 -117q-10 -72 -10 -127zM264 1372l41 55q31 8 45 11l72 12q12 2 35.5 7t34.5 7q23 4 45 4l118 -411q-29 -16 -47 -25q-12 -6 -45 -16z" />
<glyph unicode="&#xf3;" horiz-adv-x="923" d="M33 344q0 147 59 268q63 129 195 228q14 12 59 37q39 20 68 30q51 16 71 21q49 8 72 8q76 0 139.5 -28.5t106.5 -78t65 -118.5q23 -72 23 -152q0 -68 -19 -135q-23 -82 -49 -133q-34 -65 -80 -123q-45 -55 -102 -105q-29 -27 -57 -40q-12 -6 -70 -33q-23 -10 -68 -23 q-31 -8 -65 -8q-86 0 -145 29q-63 31 -108.5 82t-70.5 123q-24 69 -24 151zM297 428q0 -59 14 -127q12 -57 35 -102q25 -51 49 -72q27 -25 54 -25q49 0 83 35q37 37 58 88q18 47 28 121q10 72 11 127q0 77 -13 135q-12 61 -32 99q-23 41 -45.5 61t-51.5 20q-55 0 -90 -32 q-39 -37 -59 -84q-22 -52 -31 -117q-10 -72 -10 -127zM461 1071l221 397q12 0 43 -6t66 -12t65 -12q37 -8 39 -8l27 -66l-385 -348q-12 4 -19 8q-2 2 -10 6t-10 6q-12 8 -21 17q-12 12 -16 18z" />
<glyph unicode="&#xf4;" horiz-adv-x="923" d="M33 344q0 147 59 268q63 129 195 228q14 12 59 37q39 20 68 30q51 16 71 21q49 8 72 8q76 0 139.5 -28.5t106.5 -78t65 -118.5q23 -72 23 -152q0 -68 -19 -135q-23 -82 -49 -133q-34 -65 -80 -123q-45 -55 -102 -105q-29 -27 -57 -40q-12 -6 -70 -33q-23 -10 -68 -23 q-31 -8 -65 -8q-86 0 -145 29q-63 31 -108.5 82t-70.5 123q-24 69 -24 151zM297 428q0 -59 14 -127q12 -57 35 -102q25 -51 49 -72q27 -25 54 -25q49 0 83 35q37 37 58 88q18 47 28 121q10 72 11 127q0 77 -13 135q-12 61 -32 99q-23 41 -45.5 61t-51.5 20q-55 0 -90 -32 q-39 -37 -59 -84q-22 -52 -31 -117q-10 -72 -10 -127zM227 1081l303 381h154l203 -381q-14 -18 -37 -39q-12 -10 -39 -26l-230 215l-292 -215q-2 0 -5.5 4t-7.5 6q-12 8 -18 14q-2 4 -8.5 10.5t-8.5 10.5q-2 2 -14 20z" />
<glyph unicode="&#xf5;" horiz-adv-x="923" d="M33 344q0 147 59 268q63 129 195 228q14 12 59 37q39 20 68 30q51 16 71 21q49 8 72 8q76 0 139.5 -28.5t106.5 -78t65 -118.5q23 -72 23 -152q0 -68 -19 -135q-23 -82 -49 -133q-34 -65 -80 -123q-45 -55 -102 -105q-29 -27 -57 -40q-12 -6 -70 -33q-23 -10 -68 -23 q-31 -8 -65 -8q-86 0 -145 29q-63 31 -108.5 82t-70.5 123q-24 69 -24 151zM297 428q0 -59 14 -127q12 -57 35 -102q25 -51 49 -72q27 -25 54 -25q49 0 83 35q37 37 58 88q18 47 28 121q10 72 11 127q0 77 -13 135q-12 61 -32 99q-23 41 -45.5 61t-51.5 20q-55 0 -90 -32 q-39 -37 -59 -84q-22 -52 -31 -117q-10 -72 -10 -127zM160 1069l53 94q25 43 70 99q39 49 80 77q43 31 88 31t84 -16q33 -14 71 -35q8 -4 31 -17.5t35 -19.5q29 -14 65 -14q43 0 76 26q34 28 74 86l74 -32l-54 -93q-25 -43 -69 -98q-35 -43 -80 -76q-43 -31 -88 -30 q-41 0 -80 16q-25 10 -70 34.5t-67 35.5q-37 16 -74 16q-14 0 -39 -8q-16 -6 -35 -21q-16 -14 -35 -34q-8 -8 -38 -50z" />
<glyph unicode="&#xf6;" horiz-adv-x="923" d="M33 344q0 147 59 268q63 129 195 228q14 12 59 37q39 20 68 30q51 16 71 21q49 8 72 8q76 0 139.5 -28.5t106.5 -78t65 -118.5q23 -72 23 -152q0 -68 -19 -135q-23 -82 -49 -133q-34 -65 -80 -123q-45 -55 -102 -105q-29 -27 -57 -40q-12 -6 -70 -33q-23 -10 -68 -23 q-31 -8 -65 -8q-86 0 -145 29q-63 31 -108.5 82t-70.5 123q-24 69 -24 151zM297 428q0 -59 14 -127q12 -57 35 -102q25 -51 49 -72q27 -25 54 -25q49 0 83 35q37 37 58 88q18 47 28 121q10 72 11 127q0 77 -13 135q-12 61 -32 99q-23 41 -45.5 61t-51.5 20q-55 0 -90 -32 q-39 -37 -59 -84q-22 -52 -31 -117q-10 -72 -10 -127zM242 1186q0 31 12 65q14 41 33 64q25 33 53 49q31 18 72 18q31 0 47.5 -8t30.5 -26.5t20 -34.5q6 -18 7 -41q0 -31 -13 -66q-14 -41 -33 -63q-20 -27 -55 -47.5t-71 -20.5q-25 0 -46 10q-23 10 -32 25q-12 14 -19 35 q-6 18 -6 41zM635 1186q0 37 11 65q12 35 34 64q27 35 52 49q31 18 71 18q31 0 47 -8q18 -10 33 -26q12 -14 19 -35q6 -18 6 -41q0 -37 -11 -66q-12 -35 -34.5 -63.5t-53.5 -46.5q-35 -20 -71 -21q-27 0 -47 10q-18 9 -31 25q-12 14 -19 35q-6 18 -6 41z" />
<glyph unicode="&#xf7;" horiz-adv-x="833" d="M49 518q4 14 12 29q12 20 19 33q10 18 18 34q2 4 7.5 12.5t7.5 12.5h639l28 -33q-2 -8 -12 -28q-2 -6 -8 -17.5t-10 -17.5q-4 -8 -10.5 -16.5t-10.5 -16.5q-9 -15 -12 -25h-641zM276 274q2 23 19 60q10 23 31 47q16 18 41 33q23 12 47 12q84 0 69 -107q-2 -29 -16 -59 q-12 -28 -31 -49q-14 -16 -43 -33q-20 -12 -47 -12q-43 0 -59.5 28.5t-10.5 79.5zM350 809q2 27 17 57q10 23 32 49q12 14 41 31q23 12 47 12q84 0 70 -104q-2 -29 -16 -59q-10 -23 -33 -50q-16 -18 -41 -32q-20 -12 -47 -13q-47 0 -61.5 27t-8.5 82z" />
<glyph unicode="&#xf8;" horiz-adv-x="923" d="M-14 -20l108 131q-29 47 -45 106q-16 61 -16 127q0 147 59 268q63 129 195 228q14 12 59 37q39 20 68 30q51 16 71 21q49 8 72 8q53 0 96 -12.5t82 -34.5l10 10q6 2 14.5 6t18.5 8q20 8 45 17l47 16q10 4 18.5 7l14.5 5l35 -43l-107 -127q31 -51 46 -104q14 -55 14 -125 q0 -68 -19 -135q-23 -82 -49 -133q-34 -65 -80 -123q-45 -55 -102 -105q-29 -27 -57 -40q-12 -6 -70 -33q-23 -10 -68 -23q-31 -8 -65 -8q-61 0 -105 14q-53 18 -88 39l-12 -14q-4 -4 -31 -14l-47 -17l-47 -16q-20 -8 -35 -12zM297 428q0 -6 1 -17.5t1 -17.5q0 -23 2 -33 l283 345q-20 43 -45 63q-23 20 -52 20q-55 0 -90 -32q-39 -37 -59 -84q-22 -52 -31 -117q-10 -72 -10 -127zM344 201q20 -43 49 -72q27 -27 56 -27q49 0 83 35q37 37 58 88q18 47 28 121q10 72 11 127q0 25 -4 66z" />
<glyph unicode="&#xf9;" horiz-adv-x="1126" d="M18 801l33 13l33 13q16 6 35.5 14.5t40.5 16.5l78 29q14 6 38.5 13t32.5 11q34 12 62 19q27 6 39 6q29 0 39 -18q10 -20 10 -66q0 -29 -6 -76q-10 -72 -15 -100q-8 -55 -18 -115q-4 -25 -10.5 -53.5t-10.5 -58.5l-14 -101q-6 -45 -6 -76q0 -41 16 -67q14 -25 29 -25 q33 0 94 49q59 47 144 160q2 12 7 39t7 43l12 82q2 10 6 34.5l6 37.5q4 45 5 55q0 29 -3 37q-4 16 -8 20t-12 8q-4 2 -14 3q-4 0 -25 -5q-12 -2 -27 -8q-20 -8 -32 -12l-21 78q6 2 64 26q10 4 20 8.5t15.5 7.5t14.5 7t23 8l76 29q14 6 39 14t33 10q31 12 59 19q25 6 39 6 q28 0 37 -18q8 -16 8 -66q0 -41 -4 -70q0 -6 -4 -38.5t-8 -51.5l-19 -98l-16 -100q-4 -18 -8 -52t-4 -41q-4 -29 -4 -77q0 -55 2 -76q2 -18 12 -49q6 -18 16 -25q12 -8 23 -8q27 0 47 6q10 2 57 23l19 -76l-82 -56l-82 -51q-37 -23 -76 -39q-35 -14 -61 -14 q-25 0 -47.5 14.5t-42.5 40.5q-16 23 -35 72q-16 47 -23 96q-35 -47 -82 -90q-31 -29 -92 -69q-35 -23 -94 -48q-41 -16 -90 -16q-27 0 -64 16q-35 16 -61 45q-25 29 -45 78q-16 41 -17 107q0 16 5 69l12 86q4 23 7 45.5t7 45.5l17 90q2 10 6 36.5l6 40.5q4 49 4 62 q0 29 -2 37q-4 14 -10 20q-4 4 -13 8q-4 2 -16 3q-4 0 -24.5 -4.5t-30.5 -8.5l-37 -12zM360 1372l41 55q31 8 45 11l72 12q12 2 35.5 7t34.5 7q23 4 45 4l118 -411q-29 -16 -47 -25q-12 -6 -45 -16z" />
<glyph unicode="&#xfa;" horiz-adv-x="1126" d="M18 801l33 13l33 13q16 6 35.5 14.5t40.5 16.5l78 29q14 6 38.5 13t32.5 11q34 12 62 19q27 6 39 6q29 0 39 -18q10 -20 10 -66q0 -29 -6 -76q-10 -72 -15 -100q-8 -55 -18 -115q-4 -25 -10.5 -53.5t-10.5 -58.5l-14 -101q-6 -45 -6 -76q0 -41 16 -67q14 -25 29 -25 q33 0 94 49q59 47 144 160q2 12 7 39t7 43l12 82q2 10 6 34.5l6 37.5q4 45 5 55q0 29 -3 37q-4 16 -8 20t-12 8q-4 2 -14 3q-4 0 -25 -5q-12 -2 -27 -8q-20 -8 -32 -12l-21 78q6 2 64 26q10 4 20 8.5t15.5 7.5t14.5 7t23 8l76 29q14 6 39 14t33 10q31 12 59 19q25 6 39 6 q28 0 37 -18q8 -16 8 -66q0 -41 -4 -70q0 -6 -4 -38.5t-8 -51.5l-19 -98l-16 -100q-4 -18 -8 -52t-4 -41q-4 -29 -4 -77q0 -55 2 -76q2 -18 12 -49q6 -18 16 -25q12 -8 23 -8q27 0 47 6q10 2 57 23l19 -76l-82 -56l-82 -51q-37 -23 -76 -39q-35 -14 -61 -14 q-25 0 -47.5 14.5t-42.5 40.5q-16 23 -35 72q-16 47 -23 96q-35 -47 -82 -90q-31 -29 -92 -69q-35 -23 -94 -48q-41 -16 -90 -16q-27 0 -64 16q-35 16 -61 45q-25 29 -45 78q-16 41 -17 107q0 16 5 69l12 86q4 23 7 45.5t7 45.5l17 90q2 10 6 36.5l6 40.5q4 49 4 62 q0 29 -2 37q-4 14 -10 20q-4 4 -13 8q-4 2 -16 3q-4 0 -24.5 -4.5t-30.5 -8.5l-37 -12zM557 1071l221 397q12 0 43 -6t66 -12t65 -12q37 -8 39 -8l27 -66l-385 -348q-12 4 -19 8q-2 2 -10 6t-10 6q-12 8 -21 17q-12 12 -16 18z" />
<glyph unicode="&#xfb;" horiz-adv-x="1126" d="M18 801l33 13l33 13q16 6 35.5 14.5t40.5 16.5l78 29q14 6 38.5 13t32.5 11q34 12 62 19q27 6 39 6q29 0 39 -18q10 -20 10 -66q0 -29 -6 -76q-10 -72 -15 -100q-8 -55 -18 -115q-4 -25 -10.5 -53.5t-10.5 -58.5l-14 -101q-6 -45 -6 -76q0 -41 16 -67q14 -25 29 -25 q33 0 94 49q59 47 144 160q2 12 7 39t7 43l12 82q2 10 6 34.5l6 37.5q4 45 5 55q0 29 -3 37q-4 16 -8 20t-12 8q-4 2 -14 3q-4 0 -25 -5q-12 -2 -27 -8q-20 -8 -32 -12l-21 78q6 2 64 26q10 4 20 8.5t15.5 7.5t14.5 7t23 8l76 29q14 6 39 14t33 10q31 12 59 19q25 6 39 6 q28 0 37 -18q8 -16 8 -66q0 -41 -4 -70q0 -6 -4 -38.5t-8 -51.5l-19 -98l-16 -100q-4 -18 -8 -52t-4 -41q-4 -29 -4 -77q0 -55 2 -76q2 -18 12 -49q6 -18 16 -25q12 -8 23 -8q27 0 47 6q10 2 57 23l19 -76l-82 -56l-82 -51q-37 -23 -76 -39q-35 -14 -61 -14 q-25 0 -47.5 14.5t-42.5 40.5q-16 23 -35 72q-16 47 -23 96q-35 -47 -82 -90q-31 -29 -92 -69q-35 -23 -94 -48q-41 -16 -90 -16q-27 0 -64 16q-35 16 -61 45q-25 29 -45 78q-16 41 -17 107q0 16 5 69l12 86q4 23 7 45.5t7 45.5l17 90q2 10 6 36.5l6 40.5q4 49 4 62 q0 29 -2 37q-4 14 -10 20q-4 4 -13 8q-4 2 -16 3q-4 0 -24.5 -4.5t-30.5 -8.5l-37 -12zM326 1081l303 381h154l203 -381q-14 -18 -37 -39q-12 -10 -39 -26l-230 215l-292 -215q-2 0 -5.5 4t-7.5 6q-12 8 -18 14q-2 4 -8.5 10.5t-8.5 10.5q-2 2 -14 20z" />
<glyph unicode="&#xfc;" horiz-adv-x="1126" d="M18 801l33 13l33 13q16 6 35.5 14.5t40.5 16.5l78 29q14 6 38.5 13t32.5 11q34 12 62 19q27 6 39 6q29 0 39 -18q10 -20 10 -66q0 -29 -6 -76q-10 -72 -15 -100q-8 -55 -18 -115q-4 -25 -10.5 -53.5t-10.5 -58.5l-14 -101q-6 -45 -6 -76q0 -41 16 -67q14 -25 29 -25 q33 0 94 49q59 47 144 160q2 12 7 39t7 43l12 82q2 10 6 34.5l6 37.5q4 45 5 55q0 29 -3 37q-4 16 -8 20t-12 8q-4 2 -14 3q-4 0 -25 -5q-12 -2 -27 -8q-20 -8 -32 -12l-21 78q6 2 64 26q10 4 20 8.5t15.5 7.5t14.5 7t23 8l76 29q14 6 39 14t33 10q31 12 59 19q25 6 39 6 q28 0 37 -18q8 -16 8 -66q0 -41 -4 -70q0 -6 -4 -38.5t-8 -51.5l-19 -98l-16 -100q-4 -18 -8 -52t-4 -41q-4 -29 -4 -77q0 -55 2 -76q2 -18 12 -49q6 -18 16 -25q12 -8 23 -8q27 0 47 6q10 2 57 23l19 -76l-82 -56l-82 -51q-37 -23 -76 -39q-35 -14 -61 -14 q-25 0 -47.5 14.5t-42.5 40.5q-16 23 -35 72q-16 47 -23 96q-35 -47 -82 -90q-31 -29 -92 -69q-35 -23 -94 -48q-41 -16 -90 -16q-27 0 -64 16q-35 16 -61 45q-25 29 -45 78q-16 41 -17 107q0 16 5 69l12 86q4 23 7 45.5t7 45.5l17 90q2 10 6 36.5l6 40.5q4 49 4 62 q0 29 -2 37q-4 14 -10 20q-4 4 -13 8q-4 2 -16 3q-4 0 -24.5 -4.5t-30.5 -8.5l-37 -12zM340 1186q0 31 12 65q14 41 33 64q25 33 53 49q31 18 72 18q31 0 47.5 -8t30.5 -26.5t20 -34.5q6 -18 7 -41q0 -31 -13 -66q-14 -41 -33 -63q-20 -27 -55 -47.5t-71 -20.5q-25 0 -46 10 q-23 10 -32 25q-12 14 -19 35q-6 18 -6 41zM733 1186q0 37 11 65q12 35 34 64q27 35 52 49q31 18 71 18q31 0 47 -8q18 -10 33 -26q12 -14 19 -35q6 -18 6 -41q0 -37 -11 -66q-12 -35 -34.5 -63.5t-53.5 -46.5q-35 -20 -71 -21q-27 0 -47 10q-18 9 -31 25q-12 14 -19 35 q-6 18 -6 41z" />
<glyph unicode="&#xfd;" horiz-adv-x="995" d="M-201 -399q0 16 19 47q12 20 45 65q14 20 51 62q27 31 39 35q33 -33 49 -45.5t53 -30.5q33 -16 49 -21q33 -8 41 -8q47 0 105 53q45 43 117 152q-2 14 -11.5 58l-15.5 71l-33 145q-25 98 -39 148l-39 137l-36 115q-25 70 -31 82q-18 45 -39 65q-16 16 -35 17q-4 0 -25 -5 q-25 -4 -32 -8q-25 -8 -39 -12l-23 78l97 47l51 22.5l47 20.5q37 16 84 33q37 12 57 12q29 0 51 -29q18 -23 45 -98q23 -59 37 -111q2 -4 16.5 -55l22.5 -80q0 -2 39 -151l37 -160l72 149q33 70 57 134q8 20 37 106q14 43 14 70q0 49 -53 53q-14 2 -35 -4q-23 -8 -47 -19 l-27 76q37 22 80 43q16 8 49 21.5t39 15.5q47 20 84 29q45 10 67.5 10t33.5 -2q23 -4 30 -10q10 -8 21 -25q8 -14 8 -39q0 -31 -29 -110q-16 -45 -80 -181l-112 -231l-137 -256q-74 -133 -138 -236q-66 -104 -139 -184q-70 -74 -147 -119q-77 -43 -166 -43q-47 0 -84 11 q-35 10 -76 28q-37 16 -55 33q-21 19 -21 29zM524 1071l221 397q12 0 43 -6t66 -12t65 -12q37 -8 39 -8l27 -66l-385 -348q-12 4 -19 8q-2 2 -10 6t-10 6q-12 8 -21 17q-12 12 -16 18z" />
<glyph unicode="&#xfe;" horiz-adv-x="1048" d="M-23 -461l37 203l43 242l45 262q8 51 20.5 121.5l24.5 144.5l39 252l33 219l23 174q8 66 8 109q0 20 -4 37q-2 10 -13 20q-4 4 -16 8q-6 2 -20 2q-4 0 -25 -4q-10 -2 -31 -10q-6 -2 -17 -6t-18 -6l-20 77l66 27q16 6 35.5 14.5l39.5 16.5l76 28q14 6 39 13.5t35 11.5 q34 12 61 18q29 6 39 7q25 0 33 -4q10 -4 16 -19q6 -10 9 -27q2 -12 2 -43q0 -39 -5 -73l-18 -137q-2 -8 -27 -197l-36 -252q59 61 94 90q37 29 82 51q31 16 69 23q23 4 66 4q45 0 86 -21q45 -23 74 -59q33 -41 49 -96q18 -59 18 -133q0 -57 -8 -109q-12 -78 -24.5 -119 t-45.5 -123q-20 -53 -59 -118q-16 -29 -55 -74q-31 -37 -64 -64q-37 -31 -71 -45q-39 -16 -76 -16q-16 0 -51 10q-29 8 -64 31q-31 20 -65 51t-62 74l-20 -119q-23 -129 -29 -174q-4 -27 -9 -65.5t-7 -51.5q-4 -31 -5 -71q0 -25 7 -41l-31 -11q-8 -2 -24.5 -8t-22.5 -8 t-53 -22l-56 -23l-47 -18q-20 -8 -29 -13zM369 274q14 -16 40.5 -36.5t51.5 -30.5q43 -18 53 -23q25 -8 49 -8q8 0 29 4q18 4 32.5 12.5t32.5 26.5q16 16 25 39q23 61 33 133q10 78 10 131t-10 101q-8 37 -23 69q-10 23 -30 39q-18 14 -27 14q-14 0 -39 -12q-18 -10 -53 -37 q-25 -18 -62 -63q-31 -37 -67 -96q-16 -78 -23 -127q-10 -66 -22 -136z" />
<glyph unicode="&#xff;" horiz-adv-x="995" d="M-201 -399q0 16 19 47q12 20 45 65q14 20 51 62q27 31 39 35q33 -33 49 -45.5t53 -30.5q33 -16 49 -21q33 -8 41 -8q47 0 105 53q45 43 117 152q-2 14 -11.5 58l-15.5 71l-33 145q-25 98 -39 148l-39 137l-36 115q-25 70 -31 82q-18 45 -39 65q-16 16 -35 17q-4 0 -25 -5 q-25 -4 -32 -8q-25 -8 -39 -12l-23 78l97 47l51 22.5l47 20.5q37 16 84 33q37 12 57 12q29 0 51 -29q18 -23 45 -98q23 -59 37 -111q2 -4 16.5 -55l22.5 -80q0 -2 39 -151l37 -160l72 149q33 70 57 134q8 20 37 106q14 43 14 70q0 49 -53 53q-14 2 -35 -4q-23 -8 -47 -19 l-27 76q37 22 80 43q16 8 49 21.5t39 15.5q47 20 84 29q45 10 67.5 10t33.5 -2q23 -4 30 -10q10 -8 21 -25q8 -14 8 -39q0 -31 -29 -110q-16 -45 -80 -181l-112 -231l-137 -256q-74 -133 -138 -236q-66 -104 -139 -184q-70 -74 -147 -119q-77 -43 -166 -43q-47 0 -84 11 q-35 10 -76 28q-37 16 -55 33q-21 19 -21 29zM307 1186q0 31 12 65q14 41 33 64q25 33 53 49q31 18 72 18q31 0 47.5 -8t30.5 -26.5t20 -34.5q6 -18 7 -41q0 -31 -13 -66q-14 -41 -33 -63q-20 -27 -55 -47.5t-71 -20.5q-25 0 -46 10q-23 10 -32 25q-12 14 -19 35 q-6 18 -6 41zM700 1186q0 37 11 65q12 35 34 64q27 35 52 49q31 18 71 18q31 0 47 -8q18 -10 33 -26q12 -14 19 -35q6 -18 6 -41q0 -37 -11 -66q-12 -35 -34.5 -63.5t-53.5 -46.5q-35 -20 -71 -21q-27 0 -47 10q-18 9 -31 25q-12 14 -19 35q-6 18 -6 41z" />
<glyph unicode="&#x100;" horiz-adv-x="1208" d="M-55 0l12 84q65 12 98 25q35 12 47 43l461 1044q41 33 62 43q23 12 67 33q31 14 66 26l32.5 10.5t28.5 8.5l232 -1165q2 -14 8 -25q6 -12 16 -20.5t31 -14.5q14 -4 47 -8l-10 -84h-486l11 84q80 6 100 18q29 16 23 50l-54 272h-366l-121 -272q-12 -31 14 -46 q23 -12 105 -22l-11 -84h-413zM428 555h285l-90 449zM338 1476q4 12 12 29q4 10 10 20.5t10 18.5l21 37q6 10 9 17t5 11h758l29 -35q-3 -12 -13 -30q-4 -8 -20 -37l-23 -39q-6 -12 -14 -25h-760z" />
<glyph unicode="&#x101;" d="M33 305q0 80 20 154q20 76 60 145q37 68 92 129q49 53 127 109q59 39 131 65q80 29 170 29q43 0 82 -18q37 -16 78 -41q14 8 41.5 18t33.5 12q47 20 64 29l35 -76q-25 -20 -29 -24q-8 -8 -18 -25q-8 -12 -15 -37q-12 -45 -14 -53q-4 -18 -27 -137q-12 -66 -18 -119 l-6 -48t-6 -46q-4 -53 -5 -62q0 -20 5 -53q0 -4 12 -45q4 -18 16 -33q10 -12 23 -12q20 0 41 6q39 10 63 23l17 -76l-86 -60q-68 -43 -82 -51q-51 -27 -70 -35q-35 -14 -49 -14t-39 10q-23 10 -45 35q-20 23 -39 68q-20 49 -27 104q-45 -57 -69 -84q-41 -45 -74 -69 q-27 -20 -80 -46q-40 -18 -80 -18q-37 0 -78 18q-43 20 -75 62q-39 49 -58 106q-22 68 -22 160zM291 379q0 -52 6 -92q6 -39 18 -64q12 -23 27 -35t31 -12q14 0 30 8q23 12 46 31q35 31 57 57q53 63 72 88l12 89l14 96q4 23 7 46t7 46l15 78q-10 10 -58 47q-25 18 -55 18 q-40 0 -74 -18q-33 -18 -59 -51q-23 -29 -43 -72q-16 -35 -31 -86q-12 -43 -18 -90q-4 -31 -4 -84zM215 1192q2 4 7 12t7 15q8 18 18 38l21 37l16 29h758l29 -35q-2 -8 -13 -28q-4 -6 -12 -20.5t-10 -18.5q-6 -12 -11.5 -21.5t-9.5 -17.5l-16 -25h-758z" />
<glyph unicode="&#x102;" horiz-adv-x="1208" d="M-55 0l12 84q65 12 98 25q35 12 47 43l461 1044q41 33 62 43q23 12 67 33q31 14 66 26l32.5 10.5t28.5 8.5l232 -1165q2 -14 8 -25q6 -12 16 -20.5t31 -14.5q14 -4 47 -8l-10 -84h-486l11 84q80 6 100 18q29 16 23 50l-54 272h-366l-121 -272q-12 -31 14 -46 q23 -12 105 -22l-11 -84h-413zM428 555h285l-90 449zM432 1654q4 6 19 21l24 24l10.5 10.5l12.5 12.5q8 6 20 14q16 -53 41 -80q23 -27 60 -51q25 -18 65 -29q31 -8 64 -8q35 0 69 8q47 10 80 29q41 23 76 51q39 33 65 80q2 -2 7.5 -6t9.5 -8q2 -2 7 -6t9 -8.5t6 -8.5 l19 -24q6 -8 14 -21q-41 -88 -84 -137q-53 -59 -100 -90q-59 -39 -101 -51q-53 -16 -90 -17q-41 0 -90 17q-51 16 -88 51q-43 39 -74 90t-51 137z" />
<glyph unicode="&#x103;" d="M33 305q0 80 20 154q20 76 60 145q37 68 92 129q49 53 127 109q59 39 131 65q80 29 170 29q43 0 82 -18q37 -16 78 -41q14 8 41.5 18t33.5 12q47 20 64 29l35 -76q-25 -20 -29 -24q-8 -8 -18 -25q-8 -12 -15 -37q-12 -45 -14 -53q-4 -18 -27 -137q-12 -66 -18 -119 l-6 -48t-6 -46q-4 -53 -5 -62q0 -20 5 -53q0 -4 12 -45q4 -18 16 -33q10 -12 23 -12q20 0 41 6q39 10 63 23l17 -76l-86 -60q-68 -43 -82 -51q-51 -27 -70 -35q-35 -14 -49 -14t-39 10q-23 10 -45 35q-20 23 -39 68q-20 49 -27 104q-45 -57 -69 -84q-41 -45 -74 -69 q-27 -20 -80 -46q-40 -18 -80 -18q-37 0 -78 18q-43 20 -75 62q-39 49 -58 106q-22 68 -22 160zM291 379q0 -52 6 -92q6 -39 18 -64q12 -23 27 -35t31 -12q14 0 30 8q23 12 46 31q35 31 57 57q53 63 72 88l12 89l14 96q4 23 7 46t7 46l15 78q-10 10 -58 47q-25 18 -55 18 q-40 0 -74 -18q-33 -18 -59 -51q-23 -29 -43 -72q-16 -35 -31 -86q-12 -43 -18 -90q-4 -31 -4 -84zM307 1335q4 6 19 21l24 24l10.5 10.5l12.5 12.5q8 6 20 14q16 -53 41 -80q23 -27 60 -51q25 -18 65 -29q31 -8 64 -8q35 0 69 8q47 10 80 29q41 23 76 51q39 33 65 80 q2 -2 7.5 -6t9.5 -8q2 -2 7 -6t9 -8.5t6 -8.5l19 -24q6 -8 14 -21q-41 -88 -84 -137q-53 -59 -100 -90q-59 -39 -101 -51q-53 -16 -90 -17q-41 0 -90 17q-51 16 -88 51q-43 39 -74 90t-51 137z" />
<glyph unicode="&#x106;" horiz-adv-x="1054" d="M55 459q0 98 20.5 192t61.5 189q39 92 103 176q59 80 147 151q45 35 82 52q57 27 96 38q51 16 101 25q47 8 98 8q55 0 98 -8q33 -6 94 -22q43 -12 82 -31q58 -29 58 -42q0 -3 -4 -18q-4 -12 -19 -41q-8 -16 -28.5 -53t-30.5 -53q-20 -33 -31 -47q-18 -27 -22 -29l-70 19 q-16 45 -29 67q-20 37 -43 60q-25 27 -59 41q-37 16 -74 16q-41 0 -71.5 -8t-73.5 -41q-59 -45 -105 -123q-39 -68 -65 -156q-23 -78 -33 -162q-10 -88 -10 -143q0 -113 26 -180q25 -66 70 -113q37 -41 88 -59q49 -18 90 -19q27 0 57 7q49 10 72 18q40 15 92 43 q45 23 115 74q4 -2 10 -15q2 -4 6 -11t6.5 -11t10.5 -25q2 -10 6 -14q-63 -63 -135 -113q-70 -47 -131 -73q-63 -27 -119 -39q-58 -12 -105 -13q-92 0 -170 33q-80 33 -137 94q-55 57 -90 152q-35 92 -35 207zM545 1413l342 323q10 -4 47 -24q12 -6 26.5 -12.5t26.5 -14.5 q10 -6 17.5 -10l15.5 -8.5t16 -8.5q12 -6 21.5 -13t15.5 -9v-68l-475 -233q-12 8 -28 33q-17 27 -25 45z" />
<glyph unicode="&#x107;" horiz-adv-x="897" d="M78 322q0 82 12 135q14 66 47 133q31 63 82 125q47 55 123 106l35.5 20.5l32.5 18.5q33 20 82 37q51 18 90 28.5t92 10.5q41 0 80 -14q37 -12 65 -31l58 -37q29 -18 61 -29l-53 -53q-29 -31 -64 -57q-27 -23 -61 -45q-27 -18 -47 -19q-16 0 -35 21l-35 45q-6 8 -41 43 q-20 20 -51 20q-49 0 -88 -32q-37 -31 -66 -89q-25 -47 -41 -122q-14 -63 -14 -140q0 -123 37 -200q33 -70 90 -70q59 0 137 43q80 45 185 131l12 -16q4 -6 8 -13.5t8 -13.5q8 -12 17 -22q6 -12 10 -17q-63 -59 -146 -121q-65 -49 -122 -80q-51 -27 -109 -45 q-45 -14 -98 -14q-49 0 -97 16q-57 20 -96 60q-45 45 -72 112q-28 75 -28 175zM528 1071l221 397q12 0 43 -6t66 -12t65 -12q37 -8 39 -8l27 -66l-385 -348q-12 4 -19 8q-2 2 -10 6t-10 6q-12 8 -21 17q-12 12 -16 18z" />
<glyph unicode="&#x108;" horiz-adv-x="1054" d="M55 459q0 98 20.5 192t61.5 189q39 92 103 176q59 80 147 151q45 35 82 52q57 27 96 38q51 16 101 25q47 8 98 8q55 0 98 -8q33 -6 94 -22q43 -12 82 -31q58 -29 58 -42q0 -3 -4 -18q-4 -12 -19 -41q-8 -16 -28.5 -53t-30.5 -53q-20 -33 -31 -47q-18 -27 -22 -29l-70 19 q-16 45 -29 67q-20 37 -43 60q-25 27 -59 41q-37 16 -74 16q-41 0 -71.5 -8t-73.5 -41q-59 -45 -105 -123q-39 -68 -65 -156q-23 -78 -33 -162q-10 -88 -10 -143q0 -113 26 -180q25 -66 70 -113q37 -41 88 -59q49 -18 90 -19q27 0 57 7q49 10 72 18q40 15 92 43 q45 23 115 74q4 -2 10 -15q2 -4 6 -11t6.5 -11t10.5 -25q2 -10 6 -14q-63 -63 -135 -113q-70 -47 -131 -73q-63 -27 -119 -39q-58 -12 -105 -13q-92 0 -170 33q-80 33 -137 94q-55 57 -90 152q-35 92 -35 207zM403 1400l295 312h133l211 -312q-20 -29 -30 -39 q-18 -18 -33 -26l-242 166l-280 -166l-27 26q-19 19 -27 39z" />
<glyph unicode="&#x109;" horiz-adv-x="897" d="M78 322q0 82 12 135q14 66 47 133q31 63 82 125q47 55 123 106l35.5 20.5l32.5 18.5q33 20 82 37q51 18 90 28.5t92 10.5q41 0 80 -14q37 -12 65 -31l58 -37q29 -18 61 -29l-53 -53q-29 -31 -64 -57q-27 -23 -61 -45q-27 -18 -47 -19q-16 0 -35 21l-35 45q-6 8 -41 43 q-20 20 -51 20q-49 0 -88 -32q-37 -31 -66 -89q-25 -47 -41 -122q-14 -63 -14 -140q0 -123 37 -200q33 -70 90 -70q59 0 137 43q80 45 185 131l12 -16q4 -6 8 -13.5t8 -13.5q8 -12 17 -22q6 -12 10 -17q-63 -59 -146 -121q-65 -49 -122 -80q-51 -27 -109 -45 q-45 -14 -98 -14q-49 0 -97 16q-57 20 -96 60q-45 45 -72 112q-28 75 -28 175zM297 1081l303 381h154l203 -381q-14 -18 -37 -39q-12 -10 -39 -26l-230 215l-292 -215q-2 0 -5.5 4t-7.5 6q-12 8 -18 14q-2 4 -8.5 10.5t-8.5 10.5q-2 2 -14 20z" />
<glyph unicode="&#x10a;" horiz-adv-x="1054" d="M55 459q0 98 20.5 192t61.5 189q39 92 103 176q59 80 147 151q45 35 82 52q57 27 96 38q51 16 101 25q47 8 98 8q55 0 98 -8q33 -6 94 -22q43 -12 82 -31q58 -29 58 -42q0 -3 -4 -18q-4 -12 -19 -41q-8 -16 -28.5 -53t-30.5 -53q-20 -33 -31 -47q-18 -27 -22 -29l-70 19 q-16 45 -29 67q-20 37 -43 60q-25 27 -59 41q-37 16 -74 16q-41 0 -71.5 -8t-73.5 -41q-59 -45 -105 -123q-39 -68 -65 -156q-23 -78 -33 -162q-10 -88 -10 -143q0 -113 26 -180q25 -66 70 -113q37 -41 88 -59q49 -18 90 -19q27 0 57 7q49 10 72 18q40 15 92 43 q45 23 115 74q4 -2 10 -15q2 -4 6 -11t6.5 -11t10.5 -25q2 -10 6 -14q-63 -63 -135 -113q-70 -47 -131 -73q-63 -27 -119 -39q-58 -12 -105 -13q-92 0 -170 33q-80 33 -137 94q-55 57 -90 152q-35 92 -35 207zM596 1466q0 29 12 63q16 43 33 66q23 29 53 47q35 20 72 20 q27 0 47 -10q18 -9 31 -24q14 -18 20 -37t6 -39q0 -33 -12 -68q-14 -41 -33 -63q-20 -27 -55 -47q-31 -18 -72 -19q-29 0 -45 8q-18 10 -32 27q-12 14 -19 35q-6 18 -6 41z" />
<glyph unicode="&#x10b;" horiz-adv-x="897" d="M78 322q0 82 12 135q14 66 47 133q31 63 82 125q47 55 123 106l35.5 20.5l32.5 18.5q33 20 82 37q51 18 90 28.5t92 10.5q41 0 80 -14q37 -12 65 -31l58 -37q29 -18 61 -29l-53 -53q-29 -31 -64 -57q-27 -23 -61 -45q-27 -18 -47 -19q-16 0 -35 21l-35 45q-6 8 -41 43 q-20 20 -51 20q-49 0 -88 -32q-37 -31 -66 -89q-25 -47 -41 -122q-14 -63 -14 -140q0 -123 37 -200q33 -70 90 -70q59 0 137 43q80 45 185 131l12 -16q4 -6 8 -13.5t8 -13.5q8 -12 17 -22q6 -12 10 -17q-63 -59 -146 -121q-65 -49 -122 -80q-51 -27 -109 -45 q-45 -14 -98 -14q-49 0 -97 16q-57 20 -96 60q-45 45 -72 112q-28 75 -28 175zM498 1186q0 31 12 65q14 41 33 64q25 33 53 49q31 18 72 18q31 0 47.5 -8t30.5 -26.5t20 -34.5q6 -18 7 -41q0 -31 -13 -66q-14 -41 -32 -63q-20 -27 -55.5 -47.5t-71.5 -20.5q-25 0 -46 10 q-23 10 -32 25q-12 14 -19 35q-6 18 -6 41z" />
<glyph unicode="&#x10c;" horiz-adv-x="1054" d="M55 459q0 98 20.5 192t61.5 189q39 92 103 176q59 80 147 151q45 35 82 52q57 27 96 38q51 16 101 25q47 8 98 8q55 0 98 -8q33 -6 94 -22q43 -12 82 -31q58 -29 58 -42q0 -3 -4 -18q-4 -12 -19 -41q-8 -16 -28.5 -53t-30.5 -53q-20 -33 -31 -47q-18 -27 -22 -29l-70 19 q-16 45 -29 67q-20 37 -43 60q-25 27 -59 41q-37 16 -74 16q-41 0 -71.5 -8t-73.5 -41q-59 -45 -105 -123q-39 -68 -65 -156q-23 -78 -33 -162q-10 -88 -10 -143q0 -113 26 -180q25 -66 70 -113q37 -41 88 -59q49 -18 90 -19q27 0 57 7q49 10 72 18q40 15 92 43 q45 23 115 74q4 -2 10 -15q2 -4 6 -11t6.5 -11t10.5 -25q2 -10 6 -14q-63 -63 -135 -113q-70 -47 -131 -73q-63 -27 -119 -39q-58 -12 -105 -13q-92 0 -170 33q-80 33 -137 94q-55 57 -90 152q-35 92 -35 207zM434 1681q20 25 37 41q8 8 39 33l239 -185l281 185q2 -2 7 -6.5 t9 -8.5q8 -8 17 -18q2 -2 5 -6t6 -9.5t5 -7.5q2 -4 7 -9t7 -9l-294 -322h-152z" />
<glyph unicode="&#x10d;" horiz-adv-x="897" d="M78 322q0 82 12 135q14 66 47 133q31 63 82 125q47 55 123 106l35.5 20.5l32.5 18.5q33 20 82 37q51 18 90 28.5t92 10.5q41 0 80 -14q37 -12 65 -31l58 -37q29 -18 61 -29l-53 -53q-29 -31 -64 -57q-27 -23 -61 -45q-27 -18 -47 -19q-16 0 -35 21l-35 45q-6 8 -41 43 q-20 20 -51 20q-49 0 -88 -32q-37 -31 -66 -89q-25 -47 -41 -122q-14 -63 -14 -140q0 -123 37 -200q33 -70 90 -70q59 0 137 43q80 45 185 131l12 -16q4 -6 8 -13.5t8 -13.5q8 -12 17 -22q6 -12 10 -17q-63 -59 -146 -121q-65 -49 -122 -80q-51 -27 -109 -45 q-45 -14 -98 -14q-49 0 -97 16q-57 20 -96 60q-45 45 -72 112q-28 75 -28 175zM340 1421q10 12 37 35q25 23 39 31l229 -215l293 215q6 -4 13 -12.5t17 -18.5q23 -23 31 -35l-301 -381h-151z" />
<glyph unicode="&#x10e;" horiz-adv-x="1236" d="M-10 0l10 84q70 16 96 29q31 14 35 30l139 1006l-137 -23v103q16 4 123 24q43 8 129 21q63 8 127 12q82 4 115 4q156 0 266 -37q115 -37 182 -106q74 -74 107 -168q35 -100 35 -223q0 -84 -23 -178q-23 -96 -64 -175q-47 -92 -102 -157q-59 -72 -139 -129 q-76 -55 -170 -86q-92 -31 -199 -31h-530zM399 170q-4 -31 23 -43q25 -12 92.5 -12t124.5 24q51 20 104 72q49 45 84 104q33 55 60 127q20 57 35 142q14 86 14 143q0 108 -18 191q-18 80 -60 141q-39 57 -104 88q-59 29 -160 29q-20 0 -30.5 -2.5t-28.5 -2.5zM442 1681 q20 25 37 41q8 8 39 33l239 -185l281 185q2 -2 7 -6.5t9 -8.5q8 -8 17 -18q2 -2 5 -6t6 -9.5t5 -7.5q2 -4 7 -9t7 -9l-294 -322h-152z" />
<glyph unicode="&#x110;" horiz-adv-x="1236" d="M-10 0l10 84q70 16 96 29q31 14 35 30l62 453h-111l-29 31q2 6 10 22l8.5 12.5t8.5 14.5l16 29q4 8 7 12l6 8h102l59 424l-137 -23v103q16 4 123 24q43 8 129 21q63 8 127 12q82 4 115 4q156 0 266 -37q115 -37 182 -106q74 -74 107 -168q35 -100 35 -223q0 -84 -23 -178 q-23 -96 -64 -175q-47 -92 -102 -157q-59 -72 -139 -129q-76 -55 -170 -86q-92 -31 -199 -31h-530zM399 170q-4 -31 23 -43q25 -12 92.5 -12t124.5 24q51 20 104 72q49 45 84 104q33 55 60 127q20 57 35 142q14 86 14 143q0 108 -18 191q-18 80 -60 141q-39 57 -104 88 q-59 29 -160 29q-20 0 -30.5 -2.5t-28.5 -2.5l-62 -446h240l28 -35l-55 -94h-229z" />
<glyph unicode="&#x111;" horiz-adv-x="1032" d="M33 315q0 84 20 154q25 88 58 141q43 74 94 127q53 57 127 105q29 18 63 35q55 25 72 30q25 8 78 21q35 8 78 8q8 0 20 -4q18 -6 23 -8q2 12 5 37.5t5 37.5l10 70h-266l-31 33q0 2 3 6t5 8l4 8q4 6 7.5 12.5l7.5 14.5t8 14t8 13q8 16 12 22h256q2 12 2 35q0 6 1.5 16.5 t1.5 14.5q0 20 -5 37q-4 14 -10 20q-6 4 -14 8q-6 2 -17 2q-4 0 -24 -4q-14 -2 -33 -10q-18 -6 -41 -12l-16 77q94 45 110 52q58 25 110.5 43t92.5 30q33 10 60 11q34 0 55 -19q20 -18 20 -63q0 -18 -8 -101q-6 -59 -18 -137h131l28 -35l-53 -96h-127q-12 -72 -26 -147 l-25 -148l-25 -143q-2 -6 -20 -129q0 -6 -14 -107q-6 -47 -7 -76q0 -74 16.5 -112.5t39.5 -38.5q29 0 49 6q33 10 57 21l19 -78l-86 -58q-68 -43 -82 -51q-27 -14 -72 -35q-31 -14 -53 -14q-20 0 -39 10q-27 14 -45 37q-16 18 -37 68q-18 43 -25 104q-88 -117 -163.5 -168 t-141.5 -51q-41 0 -82 21q-43 20 -75 63q-34 43 -56 111q-20 63 -20 161zM291 379q0 -106 24 -156q25 -47 62 -47q8 0 26 6q12 4 41 29q35 31 60 57q20 23 74 99l24 157l31 191q-12 12 -55 47q-25 18 -60 18q-39 0 -71.5 -18.5t-59.5 -50.5q-23 -29 -43 -72q-16 -35 -31 -86 q-12 -43 -18 -90q-4 -31 -4 -84z" />
<glyph unicode="&#x112;" horiz-adv-x="1028" d="M-10 0l10 84q78 18 100 29q31 14 35 30l133 971q3 12 -24 31q-25 16 -92 33l10 82h844l34 -35q-2 -8 -4 -17.5l-5 -25l-5 -25.5q-6 -29 -22 -86q-4 -12 -11.5 -41t-11.5 -43q-16 -53 -18 -57h-80q4 36 3 67q0 47 -7 80q-12 53 -45 53h-304l-55 -395h369l28 -39 q-2 -4 -22 -32l-29 -41l-28 -37q-18 -23 -25 -27q-16 20 -27 27q-20 12 -34 16q-27 8 -50 10q-18 2 -65 2h-133l-58 -419q-2 -12 5 -27q6 -12 22 -21q18 -8 57 -12q74 -6 99 -6h82q39 0 75 14q35 14 60 39q27 27 51 70q20 37 51 100l74 -28q-14 -72 -21 -93l-24 -98l-21 -82 q-6 -27 -16 -51h-905zM250 1476q4 12 12 29q4 10 10 20.5t10 18.5l21 37q6 10 9 17t5 11h758l29 -35q-3 -12 -13 -30q-4 -8 -20 -37l-23 -39q-6 -12 -14 -25h-760z" />
<glyph unicode="&#x113;" horiz-adv-x="884" d="M43 303q0 77 18 148q16 59 56 135q29 55 84 121q43 51 110 108q20 16 58 41q29 18 73 39q27 12 84 29q43 12 86 12q57 0 107 -16q43 -14 74 -39q25 -18 43 -58q14 -29 14 -63q0 -27 -6 -58q-6 -29 -27 -67q-20 -37 -55 -72q-43 -43 -96 -78q-55 -35 -148 -82 q-84 -41 -207 -86q16 -94 51 -141q37 -49 84 -49q45 0 127 43q83 43 203 141q6 -2 15 -14q6 -8 14 -25q2 -4 7 -13t7 -13l8 -17q-92 -80 -149 -123q-53 -41 -127 -83q-49 -29 -109 -48q-53 -16 -98 -16t-96 18.5t-98 59.5q-43 37 -76 106q-31 65 -31 160zM305 446 q96 45 141 76q55 35 80 63.5t35 57.5q8 25 8 62q0 45 -16 63q-18 23 -45 23q-12 0 -21 -5l-28 -14q-10 -6 -31 -22q-14 -12 -27 -27q-27 -33 -39 -59q-20 -41 -28 -64q-12 -35 -19 -70q-8 -47 -10 -84zM174 1192q2 4 7 12t7 15q8 18 18 38l21 37l16 29h758l29 -35 q-2 -8 -13 -28q-4 -6 -12 -20.5t-10 -18.5q-6 -12 -11.5 -21.5t-9.5 -17.5l-16 -25h-758z" />
<glyph unicode="&#x114;" horiz-adv-x="1028" d="M-10 0l10 84q78 18 100 29q31 14 35 30l133 971q3 12 -24 31q-25 16 -92 33l10 82h844l34 -35q-2 -8 -4 -17.5l-5 -25l-5 -25.5q-6 -29 -22 -86q-4 -12 -11.5 -41t-11.5 -43q-16 -53 -18 -57h-80q4 36 3 67q0 47 -7 80q-12 53 -45 53h-304l-55 -395h369l28 -39 q-2 -4 -22 -32l-29 -41l-28 -37q-18 -23 -25 -27q-16 20 -27 27q-20 12 -34 16q-27 8 -50 10q-18 2 -65 2h-133l-58 -419q-2 -12 5 -27q6 -12 22 -21q18 -8 57 -12q74 -6 99 -6h82q39 0 75 14q35 14 60 39q27 27 51 70q20 37 51 100l74 -28q-14 -72 -21 -93l-24 -98l-21 -82 q-6 -27 -16 -51h-905zM344 1654q4 6 19 21l24 24l10.5 10.5l12.5 12.5q8 6 20 14q16 -53 41 -80q23 -27 60 -51q25 -18 65 -29q31 -8 64 -8q35 0 69 8q47 10 80 29q41 23 76 51q39 33 65 80q2 -2 7.5 -6t9.5 -8q2 -2 7 -6t9 -8.5t6 -8.5l19 -24q6 -8 14 -21 q-41 -88 -84 -137q-53 -59 -100 -90q-59 -39 -101 -51q-53 -16 -90 -17q-41 0 -90 17q-51 16 -88 51q-43 39 -74 90t-51 137z" />
<glyph unicode="&#x115;" horiz-adv-x="884" d="M43 303q0 77 18 148q16 59 56 135q29 55 84 121q43 51 110 108q20 16 58 41q29 18 73 39q27 12 84 29q43 12 86 12q57 0 107 -16q43 -14 74 -39q25 -18 43 -58q14 -29 14 -63q0 -27 -6 -58q-6 -29 -27 -67q-20 -37 -55 -72q-43 -43 -96 -78q-55 -35 -148 -82 q-84 -41 -207 -86q16 -94 51 -141q37 -49 84 -49q45 0 127 43q83 43 203 141q6 -2 15 -14q6 -8 14 -25q2 -4 7 -13t7 -13l8 -17q-92 -80 -149 -123q-53 -41 -127 -83q-49 -29 -109 -48q-53 -16 -98 -16t-96 18.5t-98 59.5q-43 37 -76 106q-31 65 -31 160zM305 446 q96 45 141 76q55 35 80 63.5t35 57.5q8 25 8 62q0 45 -16 63q-18 23 -45 23q-12 0 -21 -5l-28 -14q-10 -6 -31 -22q-14 -12 -27 -27q-27 -33 -39 -59q-20 -41 -28 -64q-12 -35 -19 -70q-8 -47 -10 -84zM264 1335q4 6 19 21l24 24l10.5 10.5l12.5 12.5q8 6 20 14 q16 -53 41 -80q23 -27 60 -51q25 -18 65 -29q31 -8 64 -8q35 0 69 8q47 10 80 29q41 23 76 51q39 33 65 80q2 -2 7.5 -6t9.5 -8q2 -2 7 -6t9 -8.5t6 -8.5l19 -24q6 -8 14 -21q-41 -88 -84 -137q-53 -59 -100 -90q-59 -39 -101 -51q-53 -16 -90 -17q-41 0 -90 17 q-51 16 -88 51q-43 39 -74 90t-51 137z" />
<glyph unicode="&#x116;" horiz-adv-x="1028" d="M-10 0l10 84q78 18 100 29q31 14 35 30l133 971q3 12 -24 31q-25 16 -92 33l10 82h844l34 -35q-2 -8 -4 -17.5l-5 -25l-5 -25.5q-6 -29 -22 -86q-4 -12 -11.5 -41t-11.5 -43q-16 -53 -18 -57h-80q4 36 3 67q0 47 -7 80q-12 53 -45 53h-304l-55 -395h369l28 -39 q-2 -4 -22 -32l-29 -41l-28 -37q-18 -23 -25 -27q-16 20 -27 27q-20 12 -34 16q-27 8 -50 10q-18 2 -65 2h-133l-58 -419q-2 -12 5 -27q6 -12 22 -21q18 -8 57 -12q74 -6 99 -6h82q39 0 75 14q35 14 60 39q27 27 51 70q20 37 51 100l74 -28q-14 -72 -21 -93l-24 -98l-21 -82 q-6 -27 -16 -51h-905zM516 1466q0 29 12 63q16 43 33 66q23 29 53 47q35 20 72 20q27 0 47 -10q18 -9 31 -24q14 -18 20 -37t6 -39q0 -33 -12 -68q-14 -41 -33 -63q-20 -27 -55 -47q-31 -18 -72 -19q-29 0 -45 8q-18 10 -32 27q-12 14 -19 35q-6 18 -6 41z" />
<glyph unicode="&#x117;" horiz-adv-x="884" d="M43 303q0 77 18 148q16 59 56 135q29 55 84 121q43 51 110 108q20 16 58 41q29 18 73 39q27 12 84 29q43 12 86 12q57 0 107 -16q43 -14 74 -39q25 -18 43 -58q14 -29 14 -63q0 -27 -6 -58q-6 -29 -27 -67q-20 -37 -55 -72q-43 -43 -96 -78q-55 -35 -148 -82 q-84 -41 -207 -86q16 -94 51 -141q37 -49 84 -49q45 0 127 43q83 43 203 141q6 -2 15 -14q6 -8 14 -25q2 -4 7 -13t7 -13l8 -17q-92 -80 -149 -123q-53 -41 -127 -83q-49 -29 -109 -48q-53 -16 -98 -16t-96 18.5t-98 59.5q-43 37 -76 106q-31 65 -31 160zM305 446 q96 45 141 76q55 35 80 63.5t35 57.5q8 25 8 62q0 45 -16 63q-18 23 -45 23q-12 0 -21 -5l-28 -14q-10 -6 -31 -22q-14 -12 -27 -27q-27 -33 -39 -59q-20 -41 -28 -64q-12 -35 -19 -70q-8 -47 -10 -84zM442 1186q0 31 12 65q14 41 33 64q25 33 53 49q31 18 72 18 q31 0 47.5 -8t30.5 -26.5t20 -34.5q6 -18 7 -41q0 -31 -13 -66q-14 -41 -32 -63q-20 -27 -55.5 -47.5t-71.5 -20.5q-25 0 -46 10q-23 10 -32 25q-12 14 -19 35q-6 18 -6 41z" />
<glyph unicode="&#x11a;" horiz-adv-x="1028" d="M-10 0l10 84q78 18 100 29q31 14 35 30l133 971q3 12 -24 31q-25 16 -92 33l10 82h844l34 -35q-2 -8 -4 -17.5l-5 -25l-5 -25.5q-6 -29 -22 -86q-4 -12 -11.5 -41t-11.5 -43q-16 -53 -18 -57h-80q4 36 3 67q0 47 -7 80q-12 53 -45 53h-304l-55 -395h369l28 -39 q-2 -4 -22 -32l-29 -41l-28 -37q-18 -23 -25 -27q-16 20 -27 27q-20 12 -34 16q-27 8 -50 10q-18 2 -65 2h-133l-58 -419q-2 -12 5 -27q6 -12 22 -21q18 -8 57 -12q74 -6 99 -6h82q39 0 75 14q35 14 60 39q27 27 51 70q20 37 51 100l74 -28q-14 -72 -21 -93l-24 -98l-21 -82 q-6 -27 -16 -51h-905zM356 1681q20 25 37 41q8 8 39 33l239 -185l281 185q2 -2 7 -6.5t9 -8.5q8 -8 17 -18q2 -2 5 -6t6 -9.5t5 -7.5q2 -4 7 -9t7 -9l-294 -322h-152z" />
<glyph unicode="&#x11b;" horiz-adv-x="884" d="M43 303q0 77 18 148q16 59 56 135q29 55 84 121q43 51 110 108q20 16 58 41q29 18 73 39q27 12 84 29q43 12 86 12q57 0 107 -16q43 -14 74 -39q25 -18 43 -58q14 -29 14 -63q0 -27 -6 -58q-6 -29 -27 -67q-20 -37 -55 -72q-43 -43 -96 -78q-55 -35 -148 -82 q-84 -41 -207 -86q16 -94 51 -141q37 -49 84 -49q45 0 127 43q83 43 203 141q6 -2 15 -14q6 -8 14 -25q2 -4 7 -13t7 -13l8 -17q-92 -80 -149 -123q-53 -41 -127 -83q-49 -29 -109 -48q-53 -16 -98 -16t-96 18.5t-98 59.5q-43 37 -76 106q-31 65 -31 160zM305 446 q96 45 141 76q55 35 80 63.5t35 57.5q8 25 8 62q0 45 -16 63q-18 23 -45 23q-12 0 -21 -5l-28 -14q-10 -6 -31 -22q-14 -12 -27 -27q-27 -33 -39 -59q-20 -41 -28 -64q-12 -35 -19 -70q-8 -47 -10 -84zM287 1421q10 12 37 35q25 23 39 31l229 -215l293 215q6 -4 13 -12.5 t17 -18.5q23 -23 31 -35l-301 -381h-151z" />
<glyph unicode="&#x11c;" horiz-adv-x="1134" d="M55 494q0 90 23 186q23 94 59 172q41 86 94 154q59 76 119 127q45 39 90 65.5t103 48.5q51 20 119 33q53 10 141 10q23 0 84 -8q51 -6 94 -18q35 -10 86 -33q45 -20 68 -43q4 -4 -2 -21q-4 -12 -19 -41l-27 -53q-6 -10 -18 -28.5l-16 -24.5q-10 -16 -31 -45 q-16 -23 -25 -29l-67 17q-18 47 -34.5 75.5t-49.5 61.5q-31 31 -70 45q-43 16 -90 16q-41 0 -92 -22q-43 -18 -98 -74q-39 -41 -66 -96q-39 -76 -55 -135q-29 -98 -37 -150q-12 -77 -12 -147q0 -106 24 -183q23 -70 68 -125q37 -45 92 -69q51 -23 100 -23q25 0 62 6 q35 6 71 33l43 291q0 14 -2 20q-4 12 -24 21q-23 10 -64 18q-66 14 -116 23l6 84h561l-6 -84q-53 -14 -78 -37t-29 -45q-6 -55 -8 -70q-4 -37 -10 -84q-6 -43 -10 -82q-4 -41 -7 -57q-76 -59 -143 -100q-63 -37 -125 -64q-53 -23 -108 -33q-43 -8 -91 -8q-94 0 -180 37 q-88 37 -151 105q-68 72 -107 165q-39 97 -39 218zM440 1400l295 312h133l211 -312q-20 -29 -30 -39q-18 -18 -33 -26l-242 166l-280 -166l-27 26q-19 19 -27 39z" />
<glyph unicode="&#x11d;" horiz-adv-x="976" d="M-25 -389q0 8 11 29q8 14 24 38q12 16 33 41q23 27 35 37q6 4 16 13.5t15 13.5q14 10 16 10q14 0 31 -14q33 -27 47 -37q31 -20 67 -35q43 -16 97 -16q29 0 63 10q29 8 53 37q29 31 45 80q16 47 33 135q12 74 19 135q4 39 8 121q-82 -115 -164 -184q-78 -66 -168 -66 q-34 0 -74 18q-39 18 -75.5 61.5t-61.5 106.5q-25 65 -25 160q0 160 78 299q80 141 226 238q57 39 133 65q80 29 176 29q37 0 78 -21q39 -20 84 -47q49 29 71 39l60 29l39 -76q-35 -29 -54 -67q-20 -43 -28 -113q-8 -72 -19 -211q-6 -92 -10 -170q-2 -57 -10 -149 q-8 -84 -20.5 -150t-43.5 -131q-29 -59 -75 -121q-43 -55 -97 -102q-41 -37 -112 -78q-49 -29 -115 -49q-58 -18 -111 -19q-47 0 -104 11q-43 8 -96 26q-27 10 -68 37q-27 19 -27 37zM281 379q0 -106 24 -156q23 -47 64 -47q8 0 26 6q16 6 45 31q35 31 66 70q53 66 90 120 q4 86 8 125q6 61 19 144q2 8 10 35q-35 31 -64 51q-33 23 -57 22q-40 0 -74 -18q-33 -18 -59 -51q-23 -29 -43 -72q-20 -47 -33 -86q-8 -29 -16 -90q-6 -45 -6 -84zM240 1081l303 381h154l203 -381q-14 -18 -37 -39q-12 -10 -39 -26l-230 215l-292 -215q-2 0 -5.5 4t-7.5 6 q-12 8 -18 14q-2 4 -8.5 10.5t-8.5 10.5q-2 2 -14 20z" />
<glyph unicode="&#x11e;" horiz-adv-x="1134" d="M55 494q0 90 23 186q23 94 59 172q41 86 94 154q59 76 119 127q45 39 90 65.5t103 48.5q51 20 119 33q53 10 141 10q23 0 84 -8q51 -6 94 -18q35 -10 86 -33q45 -20 68 -43q4 -4 -2 -21q-4 -12 -19 -41l-27 -53q-6 -10 -18 -28.5l-16 -24.5q-10 -16 -31 -45 q-16 -23 -25 -29l-67 17q-18 47 -34.5 75.5t-49.5 61.5q-31 31 -70 45q-43 16 -90 16q-41 0 -92 -22q-43 -18 -98 -74q-39 -41 -66 -96q-39 -76 -55 -135q-29 -98 -37 -150q-12 -77 -12 -147q0 -106 24 -183q23 -70 68 -125q37 -45 92 -69q51 -23 100 -23q25 0 62 6 q35 6 71 33l43 291q0 14 -2 20q-4 12 -24 21q-23 10 -64 18q-66 14 -116 23l6 84h561l-6 -84q-53 -14 -78 -37t-29 -45q-6 -55 -8 -70q-4 -37 -10 -84q-6 -43 -10 -82q-4 -41 -7 -57q-76 -59 -143 -100q-63 -37 -125 -64q-53 -23 -108 -33q-43 -8 -91 -8q-94 0 -180 37 q-88 37 -151 105q-68 72 -107 165q-39 97 -39 218zM456 1654q4 6 19 21l24 24l10.5 10.5l12.5 12.5q8 6 20 14q16 -53 41 -80q23 -27 60 -51q25 -18 65 -29q31 -8 64 -8q35 0 69 8q47 10 80 29q41 23 76 51q39 33 65 80q2 -2 7.5 -6t9.5 -8q2 -2 7 -6t9 -8.5t6 -8.5l19 -24 q6 -8 14 -21q-41 -88 -84 -137q-53 -59 -100 -90q-59 -39 -101 -51q-53 -16 -90 -17q-41 0 -90 17q-51 16 -88 51q-43 39 -74 90t-51 137z" />
<glyph unicode="&#x11f;" horiz-adv-x="976" d="M-25 -389q0 8 11 29q8 14 24 38q12 16 33 41q23 27 35 37q6 4 16 13.5t15 13.5q14 10 16 10q14 0 31 -14q33 -27 47 -37q31 -20 67 -35q43 -16 97 -16q29 0 63 10q29 8 53 37q29 31 45 80q16 47 33 135q12 74 19 135q4 39 8 121q-82 -115 -164 -184q-78 -66 -168 -66 q-34 0 -74 18q-39 18 -75.5 61.5t-61.5 106.5q-25 65 -25 160q0 160 78 299q80 141 226 238q57 39 133 65q80 29 176 29q37 0 78 -21q39 -20 84 -47q49 29 71 39l60 29l39 -76q-35 -29 -54 -67q-20 -43 -28 -113q-8 -72 -19 -211q-6 -92 -10 -170q-2 -57 -10 -149 q-8 -84 -20.5 -150t-43.5 -131q-29 -59 -75 -121q-43 -55 -97 -102q-41 -37 -112 -78q-49 -29 -115 -49q-58 -18 -111 -19q-47 0 -104 11q-43 8 -96 26q-27 10 -68 37q-27 19 -27 37zM281 379q0 -106 24 -156q23 -47 64 -47q8 0 26 6q16 6 45 31q35 31 66 70q53 66 90 120 q4 86 8 125q6 61 19 144q2 8 10 35q-35 31 -64 51q-33 23 -57 22q-40 0 -74 -18q-33 -18 -59 -51q-23 -29 -43 -72q-20 -47 -33 -86q-8 -29 -16 -90q-6 -45 -6 -84zM264 1335q4 6 19 21l24 24l10.5 10.5l12.5 12.5q8 6 20 14q16 -53 41 -80q23 -27 60 -51q25 -18 65 -29 q31 -8 64 -8q35 0 69 8q47 10 80 29q41 23 76 51q39 33 65 80q2 -2 7.5 -6t9.5 -8q2 -2 7 -6t9 -8.5t6 -8.5l19 -24q6 -8 14 -21q-41 -88 -84 -137q-53 -59 -100 -90q-59 -39 -101 -51q-53 -16 -90 -17q-41 0 -90 17q-51 16 -88 51q-43 39 -74 90t-51 137z" />
<glyph unicode="&#x120;" horiz-adv-x="1134" d="M55 494q0 90 23 186q23 94 59 172q41 86 94 154q59 76 119 127q45 39 90 65.5t103 48.5q51 20 119 33q53 10 141 10q23 0 84 -8q51 -6 94 -18q35 -10 86 -33q45 -20 68 -43q4 -4 -2 -21q-4 -12 -19 -41l-27 -53q-6 -10 -18 -28.5l-16 -24.5q-10 -16 -31 -45 q-16 -23 -25 -29l-67 17q-18 47 -34.5 75.5t-49.5 61.5q-31 31 -70 45q-43 16 -90 16q-41 0 -92 -22q-43 -18 -98 -74q-39 -41 -66 -96q-39 -76 -55 -135q-29 -98 -37 -150q-12 -77 -12 -147q0 -106 24 -183q23 -70 68 -125q37 -45 92 -69q51 -23 100 -23q25 0 62 6 q35 6 71 33l43 291q0 14 -2 20q-4 12 -24 21q-23 10 -64 18q-66 14 -116 23l6 84h561l-6 -84q-53 -14 -78 -37t-29 -45q-6 -55 -8 -70q-4 -37 -10 -84q-6 -43 -10 -82q-4 -41 -7 -57q-76 -59 -143 -100q-63 -37 -125 -64q-53 -23 -108 -33q-43 -8 -91 -8q-94 0 -180 37 q-88 37 -151 105q-68 72 -107 165q-39 97 -39 218zM631 1466q0 29 12 63q16 43 33 66q23 29 53 47q35 20 72 20q27 0 47 -10q18 -9 31 -24q14 -18 20 -37t6 -39q0 -33 -12 -68q-14 -41 -33 -63q-20 -27 -55 -47q-31 -18 -72 -19q-29 0 -45 8q-18 10 -32 27q-12 14 -19 35 q-6 18 -6 41z" />
<glyph unicode="&#x121;" horiz-adv-x="976" d="M-25 -389q0 8 11 29q8 14 24 38q12 16 33 41q23 27 35 37q6 4 16 13.5t15 13.5q14 10 16 10q14 0 31 -14q33 -27 47 -37q31 -20 67 -35q43 -16 97 -16q29 0 63 10q29 8 53 37q29 31 45 80q16 47 33 135q12 74 19 135q4 39 8 121q-82 -115 -164 -184q-78 -66 -168 -66 q-34 0 -74 18q-39 18 -75.5 61.5t-61.5 106.5q-25 65 -25 160q0 160 78 299q80 141 226 238q57 39 133 65q80 29 176 29q37 0 78 -21q39 -20 84 -47q49 29 71 39l60 29l39 -76q-35 -29 -54 -67q-20 -43 -28 -113q-8 -72 -19 -211q-6 -92 -10 -170q-2 -57 -10 -149 q-8 -84 -20.5 -150t-43.5 -131q-29 -59 -75 -121q-43 -55 -97 -102q-41 -37 -112 -78q-49 -29 -115 -49q-58 -18 -111 -19q-47 0 -104 11q-43 8 -96 26q-27 10 -68 37q-27 19 -27 37zM281 379q0 -106 24 -156q23 -47 64 -47q8 0 26 6q16 6 45 31q35 31 66 70q53 66 90 120 q4 86 8 125q6 61 19 144q2 8 10 35q-35 31 -64 51q-33 23 -57 22q-40 0 -74 -18q-33 -18 -59 -51q-23 -29 -43 -72q-20 -47 -33 -86q-8 -29 -16 -90q-6 -45 -6 -84zM440 1186q0 31 12 65q14 41 33 64q25 33 53 49q31 18 72 18q31 0 47.5 -8t30.5 -26.5t20 -34.5q6 -18 7 -41 q0 -31 -13 -66q-14 -41 -32 -63q-20 -27 -55.5 -47.5t-71.5 -20.5q-25 0 -46 10q-23 10 -32 25q-12 14 -19 35q-6 18 -6 41z" />
<glyph unicode="&#x124;" horiz-adv-x="1327" d="M-10 0l10 84q78 18 100 29q31 14 35 30l133 971q3 12 -24 31q-25 16 -92 33l10 82h512l-10 -82q-78 -18 -101 -31q-31 -16 -35 -33l-55 -389h457l53 389q0 14 -24.5 30.5t-92.5 33.5l13 82h512l-13 -82q-74 -18 -98 -31q-35 -18 -37 -33l-133 -971q-2 -10 27 -28 q20 -14 92 -31l-10 -84h-512l10 84q74 18 98 29q34 15 37 30l61 453h-456l-62 -453q-2 -10 25 -28q23 -14 92 -31l-10 -84h-512zM487 1400l295 312h133l211 -312q-20 -29 -30 -39q-18 -18 -33 -26l-242 166l-280 -166l-27 26q-19 19 -27 39z" />
<glyph unicode="&#x125;" horiz-adv-x="1095" d="M66 0q4 27 10 58.5t12 70.5l27 166l30 186l31 195l29 190l12 84.5l12 85.5q2 23 8.5 70t8.5 68q6 59 6 92q0 20 -4 37q-4 14 -10 20q-4 4 -13 8q-4 2 -14 2q-4 0 -29 -4q-8 -2 -35 -10q-20 -6 -43 -12l-16 77l64 27l20 8t15.5 7.5t14.5 7.5t23 8l76 28q14 6 39 14.5 t33 10.5q31 12 59 18q25 6 41 7q28 0 49 -19q20 -18 21 -63q0 -20 -6 -74q-10 -92 -15 -117q-16 -115 -20 -139q-10 -59 -23 -145q-10 -70 -20 -129l-17 -97q117 106 220 154q98 45 190 45q31 0 55 -6q27 -6 43.5 -22.5t26.5 -49.5q8 -27 8 -78q0 -35 -6 -82 q-10 -78 -14 -100q-12 -70 -21 -106q-6 -27 -20 -105q-4 -27 -15 -92q-6 -43 -6 -70q0 -37 8 -47q10 -12 27 -12q18 0 27 2q4 0 11 2t11 4q8 2 25 10l32 15l29 -76l-98 -57l-107 -52q-39 -18 -100 -39q-49 -16 -75.5 -16t-51.5 30.5t-25 86.5q0 18 7 59l5 37q5 37 9 57 q8 53 18 113l19 113q2 12 14 98q6 43 6 68q0 37 -2 49q-4 23 -8 28q-8 12 -14 15q-12 4 -19 4q-12 0 -33 -6q-27 -8 -47 -21q-25 -14 -53 -41q-25 -23 -51 -67q-35 -59 -49 -119q-14 -55 -33 -162q-4 -20 -8 -51t-6 -41q-2 -14 -4 -35.5t-2 -26.5q-2 -16 -3 -41v-30l-28 -15 q-20 -8 -45 -20l-53 -25l-54 -22l-23.5 -11.5t-21.5 -9.5l-28 -14zM399 1661l295 312h133l211 -312q-20 -29 -30 -39q-18 -18 -33 -26l-242 166l-280 -166l-27 26q-19 19 -27 39z" />
<glyph unicode="&#x128;" horiz-adv-x="651" d="M10 0l10 84q74 18 99 29q31 14 35 30l133 971q3 12 -25 31q-25 16 -92 33l12 82h510l-10 -82q-74 -18 -98 -31q-31 -16 -35 -33l-133 -971q-2 -10 24 -28q20 -14 92 -31l-12 -84h-510zM60 1359l53 93q25 43 70 98q39 49 80 78q43 31 88 30.5t84 -16.5q33 -14 71 -35 q45 -25 66 -35q33 -16 65 -16q43 0 76 27q34 28 74 86l74 -33q-10 -18 -54 -92q-20 -35 -69 -97q-39 -49 -80 -77q-43 -31 -88 -31q-41 0 -80 16q-25 10 -70 35q-8 4 -21.5 12.5t-24.5 14.5t-21 10q-31 14 -74 14q-20 0 -39 -6q-12 -4 -35 -22q-16 -14 -35 -35 q-8 -8 -38 -49z" />
<glyph unicode="&#x129;" horiz-adv-x="587" d="M49 801l101 41q25 10 52 22.5t58 22.5l102 35q43 14 66 14q31 0 45 -18q16 -20 16 -66q0 -31 -6 -80q-2 -18 -9 -56t-9 -52l-23 -125l-22 -125l-17 -111q-8 -66 -8 -78q0 -25 8 -45q6 -14 23 -14q20 0 29 2q4 0 13 2t13 4q8 2 29 10l35 15l20 -76q-47 -29 -100 -57 l-103 -54q-37 -18 -94 -39q-41 -14 -73 -14q-35 0 -59.5 30.5t-24.5 86.5q0 31 6 80q2 23 16 108q2 14 23 121l11 66.5t9 54.5q16 100 17 104q8 61 8 70q0 20 -4 36.5t-9 20.5q-6 6 -12 8.5t-16 2.5q-4 0 -25 -5q-16 -4 -29 -8l-36 -12zM23 1069l53 94q25 43 70 99 q39 49 80 77q43 31 88 31t84 -16q33 -14 71 -35q8 -4 31 -17.5t35 -19.5q29 -14 65 -14q43 0 76 26q34 28 74 86l74 -32l-54 -93q-25 -43 -69 -98q-35 -43 -80 -76q-43 -31 -88 -30q-41 0 -80 16q-25 10 -70 34.5t-67 35.5q-37 16 -74 16q-14 0 -39 -8q-16 -6 -35 -21 q-16 -14 -35 -34q-8 -8 -38 -50z" />
<glyph unicode="&#x12a;" horiz-adv-x="651" d="M10 0l10 84q74 18 99 29q31 14 35 30l133 971q3 12 -25 31q-25 16 -92 33l12 82h510l-10 -82q-74 -18 -98 -31q-31 -16 -35 -33l-133 -971q-2 -10 24 -28q20 -14 92 -31l-12 -84h-510zM160 1511q2 6 12 27q4 10 10.5 20t10.5 18l20 37l17 29h557l28 -35q-2 -8 -12 -28 q-4 -6 -12 -20.5t-10 -18.5q-6 -12 -11.5 -21.5t-9.5 -17.5q-6 -12 -14 -25h-559z" />
<glyph unicode="&#x12b;" horiz-adv-x="587" d="M49 801l101 41q25 10 52 22.5t58 22.5l102 35q43 14 66 14q31 0 45 -18q16 -20 16 -66q0 -31 -6 -80q-2 -18 -9 -56t-9 -52l-23 -125l-22 -125l-17 -111q-8 -66 -8 -78q0 -25 8 -45q6 -14 23 -14q20 0 29 2q4 0 13 2t13 4q8 2 29 10l35 15l20 -76q-47 -29 -100 -57 l-103 -54q-37 -18 -94 -39q-41 -14 -73 -14q-35 0 -59.5 30.5t-24.5 86.5q0 31 6 80q2 23 16 108q2 14 23 121l11 66.5t9 54.5q16 100 17 104q8 61 8 70q0 20 -4 36.5t-9 20.5q-6 6 -12 8.5t-16 2.5q-4 0 -25 -5q-16 -4 -29 -8l-36 -12zM123 1192q2 6 12 27q4 10 10.5 20 t10.5 18l20 37l17 29h557l28 -35q-2 -8 -12 -28q-4 -6 -12 -20.5t-10 -18.5q-6 -12 -11.5 -21.5t-9.5 -17.5q-6 -12 -14 -25h-559z" />
<glyph unicode="&#x12c;" horiz-adv-x="651" d="M10 0l10 84q74 18 99 29q31 14 35 30l133 971q3 12 -25 31q-25 16 -92 33l12 82h510l-10 -82q-74 -18 -98 -31q-31 -16 -35 -33l-133 -971q-2 -10 24 -28q20 -14 92 -31l-12 -84h-510zM149 1654q4 6 19 21l24 24l10.5 10.5l12.5 12.5q8 6 20 14q16 -53 41 -80 q23 -27 60 -51q25 -18 65 -29q31 -8 64 -8q35 0 69 8q47 10 80 29q41 23 76 51q39 33 65 80q2 -2 7.5 -6t9.5 -8q2 -2 7 -6t9 -8.5t6 -8.5l19 -24q6 -8 14 -21q-41 -88 -84 -137q-53 -59 -100 -90q-59 -39 -101 -51q-53 -16 -90 -17q-41 0 -90 17q-51 16 -88 51 q-43 39 -74 90t-51 137z" />
<glyph unicode="&#x12d;" horiz-adv-x="587" d="M49 801l101 41q25 10 52 22.5t58 22.5l102 35q43 14 66 14q31 0 45 -18q16 -20 16 -66q0 -31 -6 -80q-2 -18 -9 -56t-9 -52l-23 -125l-22 -125l-17 -111q-8 -66 -8 -78q0 -25 8 -45q6 -14 23 -14q20 0 29 2q4 0 13 2t13 4q8 2 29 10l35 15l20 -76q-47 -29 -100 -57 l-103 -54q-37 -18 -94 -39q-41 -14 -73 -14q-35 0 -59.5 30.5t-24.5 86.5q0 31 6 80q2 23 16 108q2 14 23 121l11 66.5t9 54.5q16 100 17 104q8 61 8 70q0 20 -4 36.5t-9 20.5q-6 6 -12 8.5t-16 2.5q-4 0 -25 -5q-16 -4 -29 -8l-36 -12zM114 1335q4 6 19 21l24 24l10.5 10.5 l12.5 12.5q8 6 20 14q16 -53 41 -80q23 -27 60 -51q25 -18 65 -29q31 -8 64 -8q35 0 69 8q47 10 80 29q41 23 76 51q39 33 65 80q2 -2 7.5 -6t9.5 -8q2 -2 7 -6t9 -8.5t6 -8.5l19 -24q6 -8 14 -21q-41 -88 -84 -137q-53 -59 -100 -90q-59 -39 -101 -51q-53 -16 -90 -17 q-41 0 -90 17q-51 16 -88 51q-43 39 -74 90t-51 137z" />
<glyph unicode="&#x130;" horiz-adv-x="651" d="M10 0l10 84q74 18 99 29q31 14 35 30l133 971q3 12 -25 31q-25 16 -92 33l12 82h510l-10 -82q-74 -18 -98 -31q-31 -16 -35 -33l-133 -971q-2 -10 24 -28q20 -14 92 -31l-12 -84h-510zM324 1466q0 29 12 63q16 43 33 66q23 29 53 47q35 20 72 20q27 0 47 -10 q18 -9 31 -24q14 -18 20 -37t6 -39q0 -33 -12 -68q-14 -41 -33 -63q-20 -27 -55 -47q-31 -18 -72 -19q-29 0 -45 8q-18 10 -32 27q-12 14 -19 35q-6 18 -6 41z" />
<glyph unicode="&#x131;" horiz-adv-x="587" d="M49 801l101 41q25 10 52 22.5t58 22.5l102 35q43 14 66 14q31 0 45 -18q16 -20 16 -66q0 -31 -6 -80q-2 -18 -9 -56t-9 -52l-23 -125l-22 -125l-17 -111q-8 -66 -8 -78q0 -25 8 -45q6 -14 23 -14q20 0 29 2q4 0 13 2t13 4q8 2 29 10l35 15l20 -76q-47 -29 -100 -57 l-103 -54q-37 -18 -94 -39q-41 -14 -73 -14q-35 0 -59.5 30.5t-24.5 86.5q0 31 6 80q2 23 16 108q2 14 23 121l11 66.5t9 54.5q16 100 17 104q8 61 8 70q0 20 -4 36.5t-9 20.5q-6 6 -12 8.5t-16 2.5q-4 0 -25 -5q-16 -4 -29 -8l-36 -12z" />
<glyph unicode="&#x132;" horiz-adv-x="1308" d="M10 0l10 84q74 18 99 29q31 14 35 30l133 971q3 12 -25 31q-25 16 -92 33l12 82h510l-10 -82q-74 -18 -98 -31q-31 -16 -35 -33l-133 -971q-2 -10 24 -28q20 -14 92 -31l-12 -84h-510zM286 -301q0 10 13 25q4 6 14 17t16 17l41 41q14 14 43 39q14 12 39 29q18 12 27 12 q10 0 25 -14l11 -10.5t16 -13.5l14 -11q18 -16 49 -33q27 -14 57 -14q29 0 49 10q29 14 47 47q23 39 43 107q23 72 37 186l135 981q0 10 -4 14.5t-24 14.5q-12 6 -50 16q-39 10 -86 19l11 82h561l-12 -82q-74 -18 -99 -31q-35 -18 -37 -33l-120 -909q-14 -109 -50 -189 q-33 -76 -75 -135q-45 -61 -88 -98l-88 -72q-20 -16 -64 -41q-39 -23 -76 -37q-40 -15 -80 -24q-45 -10 -75 -10q-39 0 -78 12q-47 14 -72 27q-33 16 -49 32q-21 21 -21 29z" />
<glyph unicode="&#x133;" horiz-adv-x="1173" d="M49 801l101 41q25 10 52 22.5t58 22.5l102 35q43 14 66 14q31 0 45 -18q16 -20 16 -66q0 -31 -6 -80q-2 -18 -9 -56t-9 -52l-23 -125l-22 -125l-17 -111q-8 -66 -8 -78q0 -25 8 -45q6 -14 23 -14q20 0 29 2q4 0 13 2t13 4q8 2 29 10l35 15l20 -76q-47 -29 -100 -57 l-103 -54q-37 -18 -94 -39q-41 -14 -73 -14q-35 0 -59.5 30.5t-24.5 86.5q0 31 6 80q2 23 16 108q2 14 23 121l11 66.5t9 54.5q16 100 17 104q8 61 8 70q0 20 -4 36.5t-9 20.5q-6 6 -12 8.5t-16 2.5q-4 0 -25 -5q-16 -4 -29 -8l-36 -12zM279 1176q0 29 12 59q10 25 39 57 q20 25 59 43q37 18 82 19q35 0 53 -8q20 -8 35 -21q12 -10 21 -29q8 -20 8 -34q0 -29 -13 -60q-10 -27 -38 -55q-27 -27 -60 -43q-37 -18 -84 -19q-23 0 -51 9q-18 4 -37 20q-12 10 -20 29q-6 17 -6 33zM191 -393q0 8 8 24q4 8 24 37l12 18q11 17 19 25q25 29 35 39 q6 6 16.5 15.5t14.5 13.5q10 10 20 10t33 -16l45 -35q29 -20 55 -35q33 -16 64 -16q37 0 63 16q25 16 41 53q16 41 29 99q18 92 29 155q6 39 20 142l18 124q4 31 7.5 55.5t5.5 45.5l8 74q4 27 6 57l6 65q4 45 4 62q0 10 1 25.5t1 19.5q0 20 -4 36.5t-8 20.5t-12 8 q-4 2 -17 3q-4 0 -24.5 -4.5t-30.5 -8.5l-17.5 -6l-17.5 -6l-20 78q6 2 63 26l20.5 8.5t15.5 7.5t14.5 7t23.5 8l76 29q14 6 38.5 14l30.5 10l58 19q25 6 39 6q29 0 47 -12.5t18 -53.5q0 -20 -2 -39q-4 -31 -6 -63q-4 -37 -8 -80q-2 -23 -5 -43t-5 -41q-2 -27 -9 -74 q-4 -39 -6 -57q-4 -35 -8 -74t-8 -86q-2 -23 -31 -217q-16 -102 -47 -172q-37 -84 -76 -139q-53 -76 -88 -111q-43 -43 -88 -77q-53 -41 -123 -70q-66 -27 -133 -27q-45 0 -88 13q-41 12 -76 30q-41 23 -53 35q-18 19 -18 29zM844 1176q0 29 12 59q12 29 37 57q20 25 59 43 q37 18 84 19q33 0 52 -8q25 -10 37 -20.5t20 -29.5q6 -14 6 -34q0 -29 -12 -60t-37 -55.5t-61.5 -43t-81.5 -18.5q-25 0 -54 9q-14 4 -34 20q-12 10 -21 29q-6 17 -6 33z" />
<glyph unicode="&#x139;" horiz-adv-x="1017" d="M-10 0l10 84q78 18 100 29q31 14 35 30l133 971q3 12 -24 31q-25 16 -92 33l10 82h512l-10 -82q-78 -18 -101 -31q-31 -16 -35 -33l-125 -909q-2 -18 4.5 -32.5t24.5 -22.5q16 -8 51 -15q33 -6 82 -6h97q39 0 73.5 14.5t57.5 38.5q33 37 51 70q20 37 51 100l74 -28 q-2 -14 -23 -93q-6 -23 -11 -48t-11 -50l-23 -82q-10 -41 -14 -51h-897zM440 1413l342 323q10 -4 47 -24q12 -6 26.5 -12.5t26.5 -14.5q10 -6 17.5 -10l15.5 -8.5t16 -8.5q12 -6 21.5 -13t15.5 -9v-68l-475 -233q-12 8 -28 33q-17 27 -25 45z" />
<glyph unicode="&#x13a;" horiz-adv-x="567" d="M82 1384l65 27q16 6 35 14.5t39 16.5l80 28q14 6 39 13.5t35 11.5q34 12 61 18t39 7q29 0 45 -19q16 -20 17 -63q0 -40 -7 -105q-6 -59 -18 -145q-23 -147 -27 -176q-6 -45 -14 -92.5l-16 -96.5l-29 -188q-2 -12 -27 -172q-12 -80 -18 -141q-8 -82 -8 -97q0 -33 10 -47 q9 -12 25 -12q27 0 49 8q2 2 27.5 9t41.5 16l19 -76q-74 -45 -105 -62q-84 -41 -106 -51q-52 -22 -98 -37q-43 -14 -78 -14q-31 0 -52 31q-20 29 -20 88q0 27 6 82q6 59 19 133l26 170l29 188l29 193l26 176q12 83 19 147q8 86 8 98.5t-6 37.5q-4 14 -11 20q-4 4 -16 8 q-6 2 -18 2q-4 0 -25 -4q-8 -2 -15 -5t-16 -5l-39 -12zM287 1733l342 323q10 -4 47 -24q12 -6 26.5 -12.5t26.5 -14.5q10 -6 17.5 -10l15.5 -8.5t16 -8.5q12 -6 21.5 -13t15.5 -9v-68l-475 -233q-12 8 -28 33q-17 27 -25 45z" />
<glyph unicode="&#x141;" horiz-adv-x="1017" d="M-10 0l10 84q78 18 100 29q31 14 35 30l41 301l-133 -69l-23 22q2 16 13 39q4 6 10 20.5t10 22.5l21 41l16 29l109 55l69 510q3 12 -24 31q-25 16 -92 33l10 82h512l-10 -82q-78 -18 -101 -31q-31 -16 -35 -33l-51 -364l293 151l23 -24q0 -6 -15 -37l-18 -43 q-6 -14 -23 -39q-4 -6 -9 -16.5t-9 -14.5l-262 -137l-54 -385q-2 -18 4.5 -32.5t24.5 -22.5q16 -8 51 -15q33 -6 82 -6h97q39 0 73.5 14.5t57.5 38.5q33 37 51 70q20 37 51 100l74 -28q-2 -14 -23 -93q-6 -23 -11 -48t-11 -50l-23 -82q-10 -41 -14 -51h-897z" />
<glyph unicode="&#x142;" horiz-adv-x="608" d="M-6 514q8 35 18 61q14 37 33 76l156 99l24 163q20 139 23 148q0 6 14 121q4 35 4 84q0 20 -4 37q-4 14 -10 20q-4 4 -16 8q-6 2 -21 2q-2 0 -22 -4q-8 -2 -15.5 -5t-15.5 -5l-39 -12l-21 77q49 20 64 27q16 6 35.5 14.5t40.5 16.5l77 28q14 6 40 13.5t36 11.5 q37 14 60 18q29 6 41 7q29 0 45 -19q16 -20 16 -63q0 -51 -4 -86q-12 -100 -14 -119q-2 -16 -23 -143l-24 -158l151 94l35 -33q-16 -45 -25 -65q-18 -49 -28 -66l-160 -100l-27 -170q-20 -141 -22 -154q-14 -119 -17 -127q-6 -55 -6 -86q0 -33 10 -47q9 -12 25 -12 q27 0 49 8q2 2 27.5 9t42.5 16l16 -76q-82 -51 -102 -62q-84 -41 -107 -51q-52 -22 -98 -37q-43 -14 -80 -14q-28 0 -49 31q-23 33 -23 88q0 23 7 72q2 18 8 56t8 58l23 150l10 73.5t14 94.5l-151 -97z" />
<glyph unicode="&#x143;" horiz-adv-x="1271" d="M-2 0l10 84q72 10 101 27q31 18 32 32l131 959q-12 16 -55 49q-25 20 -59 27l12 82h281q14 0 20 -3q12 -4 18 -10q4 -4 17 -24q4 -8 10 -18.5t12 -22.5l443 -830l104 762q0 4 -4 16q-2 6 -16 17q-2 2 -37 16q-16 8 -60 15l11 82h399l-10 -82q-68 -10 -101 -29 q-31 -18 -34 -35l-156 -1145q-47 2 -90 17q-47 14 -71.5 26.5t-49.5 36.5q-23 23 -33 41l-430 805l-102 -752q0 -8 4 -14t18 -16q2 -2 37 -17q8 -4 58 -12l-11 -84h-399zM602 1413l342 323q10 -4 47 -24q12 -6 26.5 -12.5t26.5 -14.5q10 -6 17.5 -10l15.5 -8.5t16 -8.5 q12 -6 21.5 -13t15.5 -9v-68l-475 -233q-12 8 -28 33q-17 27 -25 45z" />
<glyph unicode="&#x144;" horiz-adv-x="1101" d="M27 803l65 26q14 6 41 16.5t35 12.5l78 29q39 14 71 24l58 19q25 6 37 6q10 0 22 -4q8 -2 15 -17q4 -8 8 -34q4 -29 4 -58q0 -8 -1 -21.5t-1 -19.5q0 -12 -4 -45q102 96 215 150q104 49 194 49q31 0 56 -6q23 -6 43 -23q16 -14 26 -47q8 -27 8 -78q0 -37 -6 -82 q-10 -78 -14 -100q-12 -70 -21 -106l-20 -107q-14 -72 -16 -92q-6 -43 -7 -70q0 -33 11 -47q10 -12 26.5 -12t22.5 2q12 4 20 6q4 2 13.5 5t11.5 5q8 4 17 7.5l20 7.5l28 -76q-76 -45 -98 -57l-104 -52q-41 -18 -97 -39q-45 -16 -71 -16q-35 0 -59.5 30.5t-24.5 86.5 q0 18 6 59l5 37q5 37 9 57q4 29 10.5 57.5t10.5 55.5q12 72 18 113q2 12 14 98q6 43 7 68q0 55 -9 73q-10 23 -36 23q-12 0 -35 -6q-16 -4 -45 -23q-33 -20 -54 -41q-31 -31 -53 -67q-33 -53 -47 -115q-12 -51 -33 -164q-4 -16 -7 -43t-5 -35q-4 -18 -8 -57q-4 -33 -4 -47 q0 -8 1 -22.5t1 -20.5l-29 -15q-20 -8 -45 -20l-53 -25q-16 -6 -30.5 -12l-24.5 -10l-22.5 -11.5t-20.5 -9.5l-29 -14l-43 41q16 78 39 205q4 27 33 201q16 98 24 167q8 66 8 109q0 29 -2 37q-4 16 -8 20t-12 9q-4 2 -17 2q-4 0 -24 -5q-14 -2 -33 -10q-29 -10 -39 -12z M553 1071l221 397q12 0 43 -6t66 -12t65 -12q37 -8 39 -8l27 -66l-385 -348q-12 4 -19 8q-2 2 -10 6t-10 6q-12 8 -21 17q-12 12 -16 18z" />
<glyph unicode="&#x147;" horiz-adv-x="1271" d="M-2 0l10 84q72 10 101 27q31 18 32 32l131 959q-12 16 -55 49q-25 20 -59 27l12 82h281q14 0 20 -3q12 -4 18 -10q4 -4 17 -24q4 -8 10 -18.5t12 -22.5l443 -830l104 762q0 4 -4 16q-2 6 -16 17q-2 2 -37 16q-16 8 -60 15l11 82h399l-10 -82q-68 -10 -101 -29 q-31 -18 -34 -35l-156 -1145q-47 2 -90 17q-47 14 -71.5 26.5t-49.5 36.5q-23 23 -33 41l-430 805l-102 -752q0 -8 4 -14t18 -16q2 -2 37 -17q8 -4 58 -12l-11 -84h-399zM491 1681q20 25 37 41q8 8 39 33l239 -185l281 185q2 -2 7 -6.5t9 -8.5q8 -8 17 -18q2 -2 5 -6t6 -9.5 t5 -7.5q2 -4 7 -9t7 -9l-294 -322h-152z" />
<glyph unicode="&#x148;" horiz-adv-x="1101" d="M27 803l65 26q14 6 41 16.5t35 12.5l78 29q39 14 71 24l58 19q25 6 37 6q10 0 22 -4q8 -2 15 -17q4 -8 8 -34q4 -29 4 -58q0 -8 -1 -21.5t-1 -19.5q0 -12 -4 -45q102 96 215 150q104 49 194 49q31 0 56 -6q23 -6 43 -23q16 -14 26 -47q8 -27 8 -78q0 -37 -6 -82 q-10 -78 -14 -100q-12 -70 -21 -106l-20 -107q-14 -72 -16 -92q-6 -43 -7 -70q0 -33 11 -47q10 -12 26.5 -12t22.5 2q12 4 20 6q4 2 13.5 5t11.5 5q8 4 17 7.5l20 7.5l28 -76q-76 -45 -98 -57l-104 -52q-41 -18 -97 -39q-45 -16 -71 -16q-35 0 -59.5 30.5t-24.5 86.5 q0 18 6 59l5 37q5 37 9 57q4 29 10.5 57.5t10.5 55.5q12 72 18 113q2 12 14 98q6 43 7 68q0 55 -9 73q-10 23 -36 23q-12 0 -35 -6q-16 -4 -45 -23q-33 -20 -54 -41q-31 -31 -53 -67q-33 -53 -47 -115q-12 -51 -33 -164q-4 -16 -7 -43t-5 -35q-4 -18 -8 -57q-4 -33 -4 -47 q0 -8 1 -22.5t1 -20.5l-29 -15q-20 -8 -45 -20l-53 -25q-16 -6 -30.5 -12l-24.5 -10l-22.5 -11.5t-20.5 -9.5l-29 -14l-43 41q16 78 39 205q4 27 33 201q16 98 24 167q8 66 8 109q0 29 -2 37q-4 16 -8 20t-12 9q-4 2 -17 2q-4 0 -24 -5q-14 -2 -33 -10q-29 -10 -39 -12z M365 1421q10 12 37 35q25 23 39 31l229 -215l293 215q6 -4 13 -12.5t17 -18.5q23 -23 31 -35l-301 -381h-151z" />
<glyph unicode="&#x14a;" horiz-adv-x="1245" d="M0 0l10 84q70 16 96 29q31 14 35 30l115 815q8 51 8 89q0 35 -14 43q-16 10 -45 4q-43 -8 -88 -21l-19 94l47 17.5l66 23.5l111 39q39 14 98 31q43 12 63 12q25 0 37 -22q14 -25 15 -84q0 -20 -9 -78q-6 -43 -14 -94q61 68 127 121q72 57 129 88q61 33 125 51 q61 18 108 18q31 0 72 -12t74 -39q37 -29 57 -78q23 -51 23 -119q0 -46 -6 -92l-101 -702q-16 -104 -51 -193q-37 -94 -88 -168q-51 -76 -113 -137q-55 -55 -123 -102q-12 -8 -59 -35q-33 -18 -72 -33q-40 -15 -79 -24q-45 -10 -80 -11q-47 0 -93 15q-61 18 -90 34 q-40 22 -67 44q-27 20 -27 36q0 6 12 23q2 2 12.5 16.5t18.5 22.5q25 29 41.5 45t44.5 41l41 31q18 12 31 12q6 0 22 -10q12 -6 33 -25q20 -16 37 -31q20 -16 45 -32q25 -15 49 -25q27 -10 53 -10q33 0 72 26q35 23 70 78q31 47 57 135q27 86 41 189l92 682q2 6 3 17t1 18 l4 38q4 29 4.5 35t1.5 14.5t1 10.5q0 57 -27 82q-28 25 -80 24q-31 0 -65.5 -14t-77.5 -41q-40 -25 -80 -61q-45 -43 -74 -78q-31 -39 -57 -92q-25 -49 -31 -99l-76 -553q-2 -10 29 -28q23 -14 94 -31l-10 -84h-510z" />
<glyph unicode="&#x14b;" horiz-adv-x="1073" d="M14 803q23 10 111 45q72 29 115 43q86 29 100 33q43 12 59 12q10 0 23 -4q10 -4 16 -17q4 -8 8 -34q2 -14 3 -58q0 -8 -1.5 -21.5t-1.5 -19.5q0 -12 -4 -45q113 102 220 152q102 47 190 47q31 0 55 -6q27 -6 43 -23q18 -18 27 -47q8 -27 8 -80q0 -6 -4 -67 q-3 -46 -12 -105l-19 -131q-4 -27 -13 -79l-11 -64l-25 -150l-24 -141q-14 -74 -43 -139q-23 -51 -66 -117q-25 -37 -82 -98q-43 -47 -90 -84q-53 -45 -119 -76q-63 -31 -145 -31q-41 0 -88 13q-49 12 -84 30q-37 18 -62 37q-23 16 -22 33q0 8 8 24q8 18 22 37q20 29 33 43 q6 6 17.5 19.5t17.5 19.5q10 12 31 29q12 10 20 10q10 0 33 -16l49 -37q37 -25 58 -35q33 -16 61.5 -16t54.5 10q23 8 45 41q14 23 37 90q18 58 37 160l43 231l31 189q6 37 16 135q6 55 6 76q0 55 -8 73q-10 23 -37 23q-12 0 -33 -6q-27 -8 -47 -21q-27 -16 -51 -41 q-29 -29 -55 -69q-27 -47 -45 -115q-12 -47 -35 -164q-4 -16 -7 -43t-5 -35q-4 -18 -8 -61q-2 -18 -3 -47v-39l-28 -15q-20 -8 -45 -20l-53 -25l-54 -22l-23.5 -11.5t-21.5 -9.5l-28 -14l-43 41q29 135 40 205q4 27 33 201l23 167q8 66 8 109q0 29 -2 37t-8 20q-2 4 -10 9 q-4 2 -17 2q-4 0 -24 -5q-6 0 -33 -10l-41 -12z" />
<glyph unicode="&#x14c;" horiz-adv-x="1189" d="M70 485q0 157 49 289q49 135 129 244q51 66 94 106q51 47 115 86q59 37 133 58q78 23 155 22q104 0 191 -41q76 -37 135 -112q55 -70 82 -164q27 -92 27 -199q0 -74 -15 -143q-18 -84 -39 -146q-20 -57 -63 -137q-33 -61 -82 -123q-45 -57 -96 -100q-66 -55 -115 -82 q-51 -29 -127 -53q-61 -20 -131 -21q-100 0 -186 41q-80 39 -140 111q-53 66 -86 166q-30 94 -30 198zM342 532q0 -100 14 -172q16 -82 45 -133q31 -55 74 -85.5t100 -30.5q61 0 107 28q51 31 86 82q35 49 63 117q25 55 46 137q16 61 26 146q8 66 8 135q0 80 -16 157 q-14 74 -45 127q-29 53 -76 84q-45 31 -102 31q-55 0 -103 -29q-43 -27 -82 -77q-37 -49 -63.5 -110.5t-44.5 -133.5q-20 -80 -29 -139q-8 -64 -8 -134zM351 1476q4 12 12 29q4 10 10 20.5t10 18.5l21 37q6 10 9 17t5 11h758l29 -35q-3 -12 -13 -30q-4 -8 -20 -37l-23 -39 q-6 -12 -14 -25h-760z" />
<glyph unicode="&#x14d;" horiz-adv-x="923" d="M33 344q0 147 59 268q63 129 195 228q14 12 59 37q39 20 68 30q51 16 71 21q49 8 72 8q76 0 139.5 -28.5t106.5 -78t65 -118.5q23 -72 23 -152q0 -68 -19 -135q-23 -82 -49 -133q-34 -65 -80 -123q-45 -55 -102 -105q-29 -27 -57 -40q-12 -6 -70 -33q-23 -10 -68 -23 q-31 -8 -65 -8q-86 0 -145 29q-63 31 -108.5 82t-70.5 123q-24 69 -24 151zM297 428q0 -59 14 -127q12 -57 35 -102q25 -51 49 -72q27 -25 54 -25q49 0 83 35q37 37 58 88q18 47 28 121q10 72 11 127q0 77 -13 135q-12 61 -32 99q-23 41 -45.5 61t-51.5 20q-55 0 -90 -32 q-39 -37 -59 -84q-22 -52 -31 -117q-10 -72 -10 -127zM158 1192q2 4 7 12t7 15q8 18 18 38l21 37l16 29h758l29 -35q-2 -8 -13 -28q-4 -6 -12 -20.5t-10 -18.5q-6 -12 -11.5 -21.5t-9.5 -17.5l-16 -25h-758z" />
<glyph unicode="&#x14e;" horiz-adv-x="1189" d="M70 485q0 157 49 289q49 135 129 244q51 66 94 106q51 47 115 86q59 37 133 58q78 23 155 22q104 0 191 -41q76 -37 135 -112q55 -70 82 -164q27 -92 27 -199q0 -74 -15 -143q-18 -84 -39 -146q-20 -57 -63 -137q-33 -61 -82 -123q-45 -57 -96 -100q-66 -55 -115 -82 q-51 -29 -127 -53q-61 -20 -131 -21q-100 0 -186 41q-80 39 -140 111q-53 66 -86 166q-30 94 -30 198zM342 532q0 -100 14 -172q16 -82 45 -133q31 -55 74 -85.5t100 -30.5q61 0 107 28q51 31 86 82q35 49 63 117q25 55 46 137q16 61 26 146q8 66 8 135q0 80 -16 157 q-14 74 -45 127q-29 53 -76 84q-45 31 -102 31q-55 0 -103 -29q-43 -27 -82 -77q-37 -49 -63.5 -110.5t-44.5 -133.5q-20 -80 -29 -139q-8 -64 -8 -134zM444 1654q4 6 19 21l24 24l10.5 10.5l12.5 12.5q8 6 20 14q16 -53 41 -80q23 -27 60 -51q25 -18 65 -29q31 -8 64 -8 q35 0 69 8q47 10 80 29q41 23 76 51q39 33 65 80q2 -2 7.5 -6t9.5 -8q2 -2 7 -6t9 -8.5t6 -8.5l19 -24q6 -8 14 -21q-41 -88 -84 -137q-53 -59 -100 -90q-59 -39 -101 -51q-53 -16 -90 -17q-41 0 -90 17q-51 16 -88 51q-43 39 -74 90t-51 137z" />
<glyph unicode="&#x14f;" horiz-adv-x="923" d="M33 344q0 147 59 268q63 129 195 228q14 12 59 37q39 20 68 30q51 16 71 21q49 8 72 8q76 0 139.5 -28.5t106.5 -78t65 -118.5q23 -72 23 -152q0 -68 -19 -135q-23 -82 -49 -133q-34 -65 -80 -123q-45 -55 -102 -105q-29 -27 -57 -40q-12 -6 -70 -33q-23 -10 -68 -23 q-31 -8 -65 -8q-86 0 -145 29q-63 31 -108.5 82t-70.5 123q-24 69 -24 151zM297 428q0 -59 14 -127q12 -57 35 -102q25 -51 49 -72q27 -25 54 -25q49 0 83 35q37 37 58 88q18 47 28 121q10 72 11 127q0 77 -13 135q-12 61 -32 99q-23 41 -45.5 61t-51.5 20q-55 0 -90 -32 q-39 -37 -59 -84q-22 -52 -31 -117q-10 -72 -10 -127zM250 1335q4 6 19 21l24 24l10.5 10.5l12.5 12.5q8 6 20 14q16 -53 41 -80q23 -27 60 -51q25 -18 65 -29q31 -8 64 -8q35 0 69 8q47 10 80 29q41 23 76 51q39 33 65 80q2 -2 7.5 -6t9.5 -8q2 -2 7 -6t9 -8.5t6 -8.5 l19 -24q6 -8 14 -21q-41 -88 -84 -137q-53 -59 -100 -90q-59 -39 -101 -51q-53 -16 -90 -17q-41 0 -90 17q-51 16 -88 51q-43 39 -74 90t-51 137z" />
<glyph unicode="&#x150;" horiz-adv-x="1189" d="M70 485q0 157 49 289q49 135 129 244q51 66 94 106q51 47 115 86q59 37 133 58q78 23 155 22q104 0 191 -41q76 -37 135 -112q55 -70 82 -164q27 -92 27 -199q0 -74 -15 -143q-18 -84 -39 -146q-20 -57 -63 -137q-33 -61 -82 -123q-45 -57 -96 -100q-66 -55 -115 -82 q-51 -29 -127 -53q-61 -20 -131 -21q-100 0 -186 41q-80 39 -140 111q-53 66 -86 166q-30 94 -30 198zM342 532q0 -100 14 -172q16 -82 45 -133q31 -55 74 -85.5t100 -30.5q61 0 107 28q51 31 86 82q35 49 63 117q25 55 46 137q16 61 26 146q8 66 8 135q0 80 -16 157 q-14 74 -45 127q-29 53 -76 84q-45 31 -102 31q-55 0 -103 -29q-43 -27 -82 -77q-37 -49 -63.5 -110.5t-44.5 -133.5q-20 -80 -29 -139q-8 -64 -8 -134zM535 1376l180 411q2 0 35 -4l19 -2q19 -2 29.5 -4t28 -5t21.5 -3q22 -3 31 -6l21 -62l-289 -366l-19 6q-12 4 -20 8 q-4 2 -11.5 8t-9.5 6q-12 9 -16 13zM838 1376l182 411q2 0 35 -4l20 -2q19 -2 29.5 -4l27.5 -5t21 -3q22 -3 31 -6l21 -62l-289 -366l-19 6q-12 4 -20 8q-4 2 -11 8t-9 6z" />
<glyph unicode="&#x151;" horiz-adv-x="923" d="M33 344q0 147 59 268q63 129 195 228q14 12 59 37q39 20 68 30q51 16 71 21q49 8 72 8q76 0 139.5 -28.5t106.5 -78t65 -118.5q23 -72 23 -152q0 -68 -19 -135q-23 -82 -49 -133q-34 -65 -80 -123q-45 -55 -102 -105q-29 -27 -57 -40q-12 -6 -70 -33q-23 -10 -68 -23 q-31 -8 -65 -8q-86 0 -145 29q-63 31 -108.5 82t-70.5 123q-24 69 -24 151zM297 428q0 -59 14 -127q12 -57 35 -102q25 -51 49 -72q27 -25 54 -25q49 0 83 35q37 37 58 88q18 47 28 121q10 72 11 127q0 77 -13 135q-12 61 -32 99q-23 41 -45.5 61t-51.5 20q-55 0 -90 -32 q-39 -37 -59 -84q-22 -52 -31 -117q-10 -72 -10 -127zM342 1057l180 411q2 0 35 -4l19 -2q19 -2 29.5 -4t28 -5t21.5 -3q22 -3 31 -6l21 -62l-289 -366l-19 6q-12 4 -20 8q-4 2 -11.5 8t-9.5 6q-12 9 -16 13zM645 1057l182 411q2 0 35 -4l20 -2q19 -2 29.5 -4l27.5 -5t21 -3 q22 -3 31 -6l21 -62l-289 -366l-19 6q-12 4 -20 8q-4 2 -11 8t-9 6z" />
<glyph unicode="&#x152;" horiz-adv-x="1638" d="M78 612q12 88 43 176q29 82 78 160q43 70 106 139q49 55 129 107q74 47 148 72q77 25 159 24q31 0 68 -4q23 -2 49 -10q39 -12 47 -12q33 -4 56 -4h655l35 -35q-12 -53 -17 -68q-4 -16 -7 -30.5t-5 -25.5t-8 -30q-4 -12 -11.5 -41t-11.5 -43q-12 -43 -20 -57h-78 q8 92 -4 147q-12 53 -45 53h-303l-56 -395h367l31 -39q-4 -6 -10.5 -13t-14.5 -19q-8 -10 -14 -20.5l-12 -20.5l-29 -37q-14 -18 -27 -27q-16 20 -26 27q-23 14 -33 16q-27 8 -49 10q-18 2 -68 2h-131l-57 -419q-2 -12 4 -27q6 -12 22 -21q18 -9 56 -12q74 -6 100 -6h82 q39 0 73.5 14.5t59.5 38.5q27 27 51 70q33 59 53 100l74 -28q-14 -72 -20 -93l-25 -98l-20 -82q-6 -27 -17 -51h-717q-45 0 -90 -4q-29 -2 -63.5 -10.5t-56.5 -10.5q-55 -6 -70 -6q-117 0 -207 54q-86 49 -143 143q-53 88 -76 205q-22 118 -4 241zM342 432q8 -94 41 -168 q33 -76 78 -112q51 -41 110 -41q41 0 57.5 2t45.5 10q10 2 37 16q18 9 37 25l122 893q-35 49 -88 73q-55 25 -112 25q-61 0 -113 -33q-49 -33 -92 -100q-35 -57 -70 -164q-27 -84 -47 -217q-15 -111 -6 -209z" />
<glyph unicode="&#x153;" horiz-adv-x="1460" d="M33 344q0 141 59 266q57 121 191 230q14 12 59 37q33 18 72 30q49 16 73 21q49 8 66 8q102 0 174 -43q70 -43 109 -123l26 23q4 4 15.5 12t13.5 10q16 14 55 39t74 41q31 14 82 29q43 12 90 12q57 0 102 -16.5t74 -38.5q27 -23 45 -58q16 -33 17 -63q0 -27 -7 -58 q-6 -35 -26 -65q-29 -45 -58 -74q-37 -37 -100 -78q-57 -37 -149.5 -82t-210.5 -86q6 -43 20 -77q16 -41 35 -62q23 -27 43 -39t49 -12q43 0 123 43t203 141q6 -6 12 -14l18 -25q8 -14 14.5 -26.5t10.5 -16.5q-92 -80 -150 -123q-53 -41 -127 -83q-51 -29 -110 -48 q-55 -16 -102 -16q-25 0 -56 6q-16 4 -63 25q-31 14 -64 43q-27 23 -53 67q-2 -2 -10 -8t-10 -10q-12 -12 -21 -19q-29 -27 -57 -40q-23 -12 -72 -33q-20 -8 -72 -23q-31 -8 -61 -8q-86 0 -146 29q-68 33 -108 82q-43 52 -68 123q-24 69 -24 151zM287 428q0 -63 16 -125 q14 -55 39 -104q25 -51 49 -72q27 -25 51 -25q53 0 93 35q37 35 59 90q25 63 33 119q10 72 10 127q0 77 -12 135q-12 59 -35 101q-18 33 -51 59q-27 20 -58 20q-49 0 -84 -32q-39 -35 -61 -84q-25 -53 -37 -115q-12 -64 -12 -129zM877 446q86 39 147 78q49 29 86 64 q29 27 39 55q8 25 8 62q0 16 -6 32.5t-14 26.5q-10 14 -22.5 20.5t-27.5 6.5q-33 0 -55 -21q-41 -37 -51 -47q-51 -53 -76 -123q-22 -62 -28 -154z" />
<glyph unicode="&#x154;" horiz-adv-x="1165" d="M-10 0l10 84q70 16 96 29q31 14 35 30l137 1008q-39 -6 -73 -12q-12 -2 -35 -7.5l-31 -7.5l2 103q53 14 102 24q43 8 123 21q10 2 136 12q70 6 137 6q227 0 342 -82q117 -82 116 -237q0 -51 -20 -105q-23 -57 -63 -104q-43 -49 -103 -90q-61 -43 -131 -66l215 -383 q10 -18 29 -33q14 -12 35 -14q18 -2 47 4q43 10 63 17l29 -78q-45 -27 -88 -49q-53 -27 -94 -43q-20 -8 -82 -29q-37 -12 -50 -12q-10 0 -34 4q-16 2 -33 18q-18 18 -33 41q-20 33 -33 68l-163 461q-39 0 -60 2q-25 2 -59 10l-62 -447q-2 -10 29 -28q23 -14 94 -31l-10 -84 h-520zM475 713q14 -4 43 -8q14 -2 47 -3q45 0 94 17q45 14 80 47q34 31 56 74q20 41 20 102q0 70 -22 119q-20 45 -57.5 71.5t-76 35t-81.5 8.5h-21h-20zM498 1413l342 323q10 -4 47 -24q12 -6 26.5 -12.5t26.5 -14.5q10 -6 17.5 -10l15.5 -8.5t16 -8.5q12 -6 21.5 -13 t15.5 -9v-68l-475 -233q-12 8 -28 33q-17 27 -25 45z" />
<glyph unicode="&#x155;" horiz-adv-x="870" d="M20 801l33 13l33 13q16 6 34.5 14.5t39.5 16.5l76 29q14 6 38.5 14l30.5 10q31 12 60 19q25 6 38 6q31 0 39 -21q10 -25 11 -73v-29q0 -10 -4 -35l-5 -41q-2 -14 -6 -39q61 88 90 119q41 45 78 72q37 29 70 37q37 10 63 10q16 0 43 -10q25 -9 49 -25q12 -8 26.5 -14 t27.5 -13q28 -15 49 -24q-16 -20 -23 -33q-12 -20 -26 -47l-33 -53q-8 -12 -15.5 -25.5t-15.5 -25.5q-25 -33 -26 -37q-12 -14 -19 -15q-18 0 -37 13q-2 2 -34 28q-8 6 -16.5 13.5t-16.5 13.5q-16 12 -33 12q-25 0 -57 -22q-31 -22 -62 -62q-33 -43 -59 -98 q-28 -58 -49 -129q-23 -80 -35 -152q-11 -67 -11 -128q0 -14 1 -27q-6 -2 -23.5 -10.5l-30.5 -14.5l-77 -35l-74 -34l-47 -23l-43 41q35 174 41 209q29 162 32 192q4 35 11.5 91.5t9.5 70.5q8 63 8 117q0 20 -4 36.5t-8 20.5t-12 8q-4 2 -17 3q-6 0 -27 -5q-16 -4 -28 -8 l-37 -12zM459 1071l221 397q12 0 43 -6t66 -12t65 -12q37 -8 39 -8l27 -66l-385 -348q-12 4 -19 8q-2 2 -10 6t-10 6q-12 8 -21 17q-12 12 -16 18z" />
<glyph unicode="&#x158;" horiz-adv-x="1165" d="M-10 0l10 84q70 16 96 29q31 14 35 30l137 1008q-39 -6 -73 -12q-12 -2 -35 -7.5l-31 -7.5l2 103q53 14 102 24q43 8 123 21q10 2 136 12q70 6 137 6q227 0 342 -82q117 -82 116 -237q0 -51 -20 -105q-23 -57 -63 -104q-43 -49 -103 -90q-61 -43 -131 -66l215 -383 q10 -18 29 -33q14 -12 35 -14q18 -2 47 4q43 10 63 17l29 -78q-45 -27 -88 -49q-53 -27 -94 -43q-20 -8 -82 -29q-37 -12 -50 -12q-10 0 -34 4q-16 2 -33 18q-18 18 -33 41q-20 33 -33 68l-163 461q-39 0 -60 2q-25 2 -59 10l-62 -447q-2 -10 29 -28q23 -14 94 -31l-10 -84 h-520zM475 713q14 -4 43 -8q14 -2 47 -3q45 0 94 17q45 14 80 47q34 31 56 74q20 41 20 102q0 70 -22 119q-20 45 -57.5 71.5t-76 35t-81.5 8.5h-21h-20zM385 1681q20 25 37 41q8 8 39 33l239 -185l281 185q2 -2 7 -6.5t9 -8.5q8 -8 17 -18q2 -2 5 -6t6 -9.5t5 -7.5 q2 -4 7 -9t7 -9l-294 -322h-152z" />
<glyph unicode="&#x159;" horiz-adv-x="870" d="M20 801l33 13l33 13q16 6 34.5 14.5t39.5 16.5l76 29q14 6 38.5 14l30.5 10q31 12 60 19q25 6 38 6q31 0 39 -21q10 -25 11 -73v-29q0 -10 -4 -35l-5 -41q-2 -14 -6 -39q61 88 90 119q41 45 78 72q37 29 70 37q37 10 63 10q16 0 43 -10q25 -9 49 -25q12 -8 26.5 -14 t27.5 -13q28 -15 49 -24q-16 -20 -23 -33q-12 -20 -26 -47l-33 -53q-8 -12 -15.5 -25.5t-15.5 -25.5q-25 -33 -26 -37q-12 -14 -19 -15q-18 0 -37 13q-2 2 -34 28q-8 6 -16.5 13.5t-16.5 13.5q-16 12 -33 12q-25 0 -57 -22q-31 -22 -62 -62q-33 -43 -59 -98 q-28 -58 -49 -129q-23 -80 -35 -152q-11 -67 -11 -128q0 -14 1 -27q-6 -2 -23.5 -10.5l-30.5 -14.5l-77 -35l-74 -34l-47 -23l-43 41q35 174 41 209q29 162 32 192q4 35 11.5 91.5t9.5 70.5q8 63 8 117q0 20 -4 36.5t-8 20.5t-12 8q-4 2 -17 3q-6 0 -27 -5q-16 -4 -28 -8 l-37 -12zM269 1421q10 12 37 35q25 23 39 31l229 -215l293 215q6 -4 13 -12.5t17 -18.5q23 -23 31 -35l-301 -381h-151z" />
<glyph unicode="&#x15a;" horiz-adv-x="999" d="M16 125q0 12 9 31q6 14 22 43q14 27 31 47l35 43q14 16 34 33q16 12 26.5 12t27.5 -17q8 -8 32 -41q14 -18 43 -51q33 -37 54 -53q35 -29 65 -41q35 -14 80 -14t82 14q47 18 70 41q27 27 45 68q16 35 16 90q0 47 -14 82q-18 43 -49 73q-34 34 -86 68q-35 23 -129 68 q-70 33 -111 65q-37 29 -66 72q-27 39 -34 80q-10 47 -11 90q0 66 35 131q34 65 99 117q61 49 155 81.5t203 32.5q100 0 182 -28.5t129 -63.5q2 -2 2 -7.5t-2 -12.5q-2 -10 -14 -39t-23 -49q-8 -16 -28 -50l-27 -41q-10 -16 -18 -20l-70 6q-14 55 -31 82q-20 33 -47 55 q-29 25 -55 33q-35 10 -62 10q-51 0 -86 -14q-43 -18 -59 -37q-20 -23 -33 -55q-12 -31 -12 -64q0 -14 8 -47q6 -23 29 -49q16 -20 63 -55q39 -29 107 -64q76 -39 137 -80q68 -45 96 -79q37 -43 55.5 -88.5t18.5 -102.5q0 -95 -43 -178q-43 -82 -114.5 -145.5t-172.5 -100.5 q-98 -37 -213 -37q-57 0 -120.5 12.5t-124.5 34.5q-47 18 -97 52q-39 26 -39 57zM447 1413l342 323q10 -4 47 -24q12 -6 26.5 -12.5t26.5 -14.5q10 -6 17.5 -10l15.5 -8.5t16 -8.5q12 -6 21.5 -13t15.5 -9v-68l-475 -233q-12 8 -28 33q-17 27 -25 45z" />
<glyph unicode="&#x15b;" horiz-adv-x="808" d="M-25 119q0 10 17 47l35 70q31 49 41 61q20 27 30 27q8 0 21 -19q4 -6 12 -19.5t12 -21.5l33 -55q16 -25 45 -55q16 -16 58 -41q31 -18 73 -19q59 0 97 33q35 31 34 86q0 37 -16 61q-18 29 -47 54q-29 27 -66 47l-73 41q-57 31 -88 55q-27 23 -54 59q-18 27 -28 60 q-8 27 -9 63q0 63 39 115q41 53 99 90q55 35 129 57q68 20 135 21q53 0 96 -12q41 -12 82 -29l70 -31q31 -14 65 -20l-37 -53l-45 -56q-18 -25 -43 -45q-20 -18 -30 -18q-18 0 -39 20q-20 23 -48 49q-31 31 -57 50q-29 20 -67 20q-57 0 -80 -25q-23 -27 -23 -67 q0 -27 10 -45q12 -20 33 -39q18 -16 53 -37q31 -18 72 -39q27 -14 80 -47q39 -25 70 -57q37 -41 51 -72q18 -39 18 -94q0 -47 -20 -88q-22 -43 -56 -80q-27 -29 -81 -66q-43 -29 -95 -51q-43 -18 -98 -33q-49 -12 -92 -12q-76 0 -127 16q-55 18 -100 43q-41 23 -66 52 q-25 27 -25 49zM412 1071l221 397q12 0 43 -6t66 -12t65 -12q37 -8 39 -8l27 -66l-385 -348q-12 4 -19 8q-2 2 -10 6t-10 6q-12 8 -21 17q-12 12 -16 18z" />
<glyph unicode="&#x15c;" horiz-adv-x="999" d="M16 125q0 12 9 31q6 14 22 43q14 27 31 47l35 43q14 16 34 33q16 12 26.5 12t27.5 -17q8 -8 32 -41q14 -18 43 -51q33 -37 54 -53q35 -29 65 -41q35 -14 80 -14t82 14q47 18 70 41q27 27 45 68q16 35 16 90q0 47 -14 82q-18 43 -49 73q-34 34 -86 68q-35 23 -129 68 q-70 33 -111 65q-37 29 -66 72q-27 39 -34 80q-10 47 -11 90q0 66 35 131q34 65 99 117q61 49 155 81.5t203 32.5q100 0 182 -28.5t129 -63.5q2 -2 2 -7.5t-2 -12.5q-2 -10 -14 -39t-23 -49q-8 -16 -28 -50l-27 -41q-10 -16 -18 -20l-70 6q-14 55 -31 82q-20 33 -47 55 q-29 25 -55 33q-35 10 -62 10q-51 0 -86 -14q-43 -18 -59 -37q-20 -23 -33 -55q-12 -31 -12 -64q0 -14 8 -47q6 -23 29 -49q16 -20 63 -55q39 -29 107 -64q76 -39 137 -80q68 -45 96 -79q37 -43 55.5 -88.5t18.5 -102.5q0 -95 -43 -178q-43 -82 -114.5 -145.5t-172.5 -100.5 q-98 -37 -213 -37q-57 0 -120.5 12.5t-124.5 34.5q-47 18 -97 52q-39 26 -39 57zM307 1400l295 312h133l211 -312q-20 -29 -30 -39q-18 -18 -33 -26l-242 166l-280 -166l-27 26q-19 19 -27 39z" />
<glyph unicode="&#x15d;" horiz-adv-x="808" d="M-25 119q0 10 17 47l35 70q31 49 41 61q20 27 30 27q8 0 21 -19q4 -6 12 -19.5t12 -21.5l33 -55q16 -25 45 -55q16 -16 58 -41q31 -18 73 -19q59 0 97 33q35 31 34 86q0 37 -16 61q-18 29 -47 54q-29 27 -66 47l-73 41q-57 31 -88 55q-27 23 -54 59q-18 27 -28 60 q-8 27 -9 63q0 63 39 115q41 53 99 90q55 35 129 57q68 20 135 21q53 0 96 -12q41 -12 82 -29l70 -31q31 -14 65 -20l-37 -53l-45 -56q-18 -25 -43 -45q-20 -18 -30 -18q-18 0 -39 20q-20 23 -48 49q-31 31 -57 50q-29 20 -67 20q-57 0 -80 -25q-23 -27 -23 -67 q0 -27 10 -45q12 -20 33 -39q18 -16 53 -37q31 -18 72 -39q27 -14 80 -47q39 -25 70 -57q37 -41 51 -72q18 -39 18 -94q0 -47 -20 -88q-22 -43 -56 -80q-27 -29 -81 -66q-43 -29 -95 -51q-43 -18 -98 -33q-49 -12 -92 -12q-76 0 -127 16q-55 18 -100 43q-41 23 -66 52 q-25 27 -25 49zM178 1081l303 381h154l203 -381q-14 -18 -37 -39q-12 -10 -39 -26l-230 215l-292 -215q-2 0 -5.5 4t-7.5 6q-12 8 -18 14q-2 4 -8.5 10.5t-8.5 10.5q-2 2 -14 20z" />
<glyph unicode="&#x160;" horiz-adv-x="999" d="M16 125q0 12 9 31q6 14 22 43q14 27 31 47l35 43q14 16 34 33q16 12 26.5 12t27.5 -17q8 -8 32 -41q14 -18 43 -51q33 -37 54 -53q35 -29 65 -41q35 -14 80 -14t82 14q47 18 70 41q27 27 45 68q16 35 16 90q0 47 -14 82q-18 43 -49 73q-34 34 -86 68q-35 23 -129 68 q-70 33 -111 65q-37 29 -66 72q-27 39 -34 80q-10 47 -11 90q0 66 35 131q34 65 99 117q61 49 155 81.5t203 32.5q100 0 182 -28.5t129 -63.5q2 -2 2 -7.5t-2 -12.5q-2 -10 -14 -39t-23 -49q-8 -16 -28 -50l-27 -41q-10 -16 -18 -20l-70 6q-14 55 -31 82q-20 33 -47 55 q-29 25 -55 33q-35 10 -62 10q-51 0 -86 -14q-43 -18 -59 -37q-20 -23 -33 -55q-12 -31 -12 -64q0 -14 8 -47q6 -23 29 -49q16 -20 63 -55q39 -29 107 -64q76 -39 137 -80q68 -45 96 -79q37 -43 55.5 -88.5t18.5 -102.5q0 -95 -43 -178q-43 -82 -114.5 -145.5t-172.5 -100.5 q-98 -37 -213 -37q-57 0 -120.5 12.5t-124.5 34.5q-47 18 -97 52q-39 26 -39 57zM336 1681q20 25 37 41q8 8 39 33l239 -185l281 185q2 -2 7 -6.5t9 -8.5q8 -8 17 -18q2 -2 5 -6t6 -9.5t5 -7.5q2 -4 7 -9t7 -9l-294 -322h-152z" />
<glyph unicode="&#x161;" horiz-adv-x="808" d="M-25 119q0 10 17 47l35 70q31 49 41 61q20 27 30 27q8 0 21 -19q4 -6 12 -19.5t12 -21.5l33 -55q16 -25 45 -55q16 -16 58 -41q31 -18 73 -19q59 0 97 33q35 31 34 86q0 37 -16 61q-18 29 -47 54q-29 27 -66 47l-73 41q-57 31 -88 55q-27 23 -54 59q-18 27 -28 60 q-8 27 -9 63q0 63 39 115q41 53 99 90q55 35 129 57q68 20 135 21q53 0 96 -12q41 -12 82 -29l70 -31q31 -14 65 -20l-37 -53l-45 -56q-18 -25 -43 -45q-20 -18 -30 -18q-18 0 -39 20q-20 23 -48 49q-31 31 -57 50q-29 20 -67 20q-57 0 -80 -25q-23 -27 -23 -67 q0 -27 10 -45q12 -20 33 -39q18 -16 53 -37q31 -18 72 -39q27 -14 80 -47q39 -25 70 -57q37 -41 51 -72q18 -39 18 -94q0 -47 -20 -88q-22 -43 -56 -80q-27 -29 -81 -66q-43 -29 -95 -51q-43 -18 -98 -33q-49 -12 -92 -12q-76 0 -127 16q-55 18 -100 43q-41 23 -66 52 q-25 27 -25 49zM223 1421q10 12 37 35q25 23 39 31l229 -215l293 215q6 -4 13 -12.5t17 -18.5q23 -23 31 -35l-301 -381h-151z" />
<glyph unicode="&#x164;" horiz-adv-x="1122" d="M88 938l16 74q10 43 23 90l25 90l20 68h1014l33 -35q0 -8 -15 -66q-12 -53 -20 -82l-23 -84q-4 -12 -10 -37.5t-10 -35.5h-80q-4 61 -4 86q0 29 -4 65q-3 28 -13 43q-10 16 -28 16h-217l-133 -974q0 -8 4 -15q8 -12 18 -18q23 -14 41 -21q23 -8 70 -18l-13 -84h-546 l12 84q45 10 71 18q31 10 48 19q18 9 24 18q8 12 8 17l133 974h-221q-12 0 -28 -12q-10 -8 -31 -39q-16 -25 -39 -69l-51 -101zM408 1681q20 25 37 41q8 8 39 33l239 -185l281 185q2 -2 7 -6.5t9 -8.5q8 -8 17 -18q2 -2 5 -6t6 -9.5t5 -7.5q2 -4 7 -9t7 -9l-294 -322h-152z " />
<glyph unicode="&#x168;" horiz-adv-x="1280" d="M158 1178l12 82h504l-10 -82q-72 -16 -97 -31q-35 -18 -37 -33l-88 -604q-4 -16 -8 -57q-2 -18 -2 -56q0 -139 59.5 -204.5t182.5 -65.5q68 0 112.5 24.5t79.5 71.5q31 43 51.5 108.5t28.5 137.5l92 645q0 8 -4 14.5t-18 16.5q-8 6 -33 16t-53 17l10 82h412l-13 -82 q-68 -16 -92 -31q-31 -18 -33 -33l-84 -602q-18 -132 -67 -233q-49 -102 -121 -170q-70 -66 -162 -105q-84 -35 -188 -35q-80 0 -158 25q-77 25 -135 74q-59 49 -92 118q-37 78 -37 162q0 47 10 115l92 651q0 12 -24 31q-22 17 -90 33zM397 1359l53 93q25 43 70 98 q39 49 80 78q43 31 88 30.5t84 -16.5q33 -14 71 -35q45 -25 66 -35q33 -16 65 -16q43 0 76 27q34 28 74 86l74 -33q-10 -18 -54 -92q-20 -35 -69 -97q-39 -49 -80 -77q-43 -31 -88 -31q-41 0 -80 16q-25 10 -70 35q-8 4 -21.5 12.5t-24.5 14.5t-21 10q-31 14 -74 14 q-20 0 -39 -6q-12 -4 -35 -22q-16 -14 -35 -35q-8 -8 -38 -49z" />
<glyph unicode="&#x169;" horiz-adv-x="1126" d="M18 801l33 13l33 13q16 6 35.5 14.5t40.5 16.5l78 29q14 6 38.5 13t32.5 11q34 12 62 19q27 6 39 6q29 0 39 -18q10 -20 10 -66q0 -29 -6 -76q-10 -72 -15 -100q-8 -55 -18 -115q-4 -25 -10.5 -53.5t-10.5 -58.5l-14 -101q-6 -45 -6 -76q0 -41 16 -67q14 -25 29 -25 q33 0 94 49q59 47 144 160q2 12 7 39t7 43l12 82q2 10 6 34.5l6 37.5q4 45 5 55q0 29 -3 37q-4 16 -8 20t-12 8q-4 2 -14 3q-4 0 -25 -5q-12 -2 -27 -8q-20 -8 -32 -12l-21 78q6 2 64 26q10 4 20 8.5t15.5 7.5t14.5 7t23 8l76 29q14 6 39 14t33 10q31 12 59 19q25 6 39 6 q28 0 37 -18q8 -16 8 -66q0 -41 -4 -70q0 -6 -4 -38.5t-8 -51.5l-19 -98l-16 -100q-4 -18 -8 -52t-4 -41q-4 -29 -4 -77q0 -55 2 -76q2 -18 12 -49q6 -18 16 -25q12 -8 23 -8q27 0 47 6q10 2 57 23l19 -76l-82 -56l-82 -51q-37 -23 -76 -39q-35 -14 -61 -14 q-25 0 -47.5 14.5t-42.5 40.5q-16 23 -35 72q-16 47 -23 96q-35 -47 -82 -90q-31 -29 -92 -69q-35 -23 -94 -48q-41 -16 -90 -16q-27 0 -64 16q-35 16 -61 45q-25 29 -45 78q-16 41 -17 107q0 16 5 69l12 86q4 23 7 45.5t7 45.5l17 90q2 10 6 36.5l6 40.5q4 49 4 62 q0 29 -2 37q-4 14 -10 20q-4 4 -13 8q-4 2 -16 3q-4 0 -24.5 -4.5t-30.5 -8.5l-37 -12zM256 1069l53 94q25 43 70 99q39 49 80 77q43 31 88 31t84 -16q33 -14 71 -35q8 -4 31 -17.5t35 -19.5q29 -14 65 -14q43 0 76 26q34 28 74 86l74 -32l-54 -93q-25 -43 -69 -98 q-35 -43 -80 -76q-43 -31 -88 -30q-41 0 -80 16q-25 10 -70 34.5t-67 35.5q-37 16 -74 16q-14 0 -39 -8q-16 -6 -35 -21q-16 -14 -35 -34q-8 -8 -38 -50z" />
<glyph unicode="&#x16a;" horiz-adv-x="1280" d="M158 1178l12 82h504l-10 -82q-72 -16 -97 -31q-35 -18 -37 -33l-88 -604q-4 -16 -8 -57q-2 -18 -2 -56q0 -139 59.5 -204.5t182.5 -65.5q68 0 112.5 24.5t79.5 71.5q31 43 51.5 108.5t28.5 137.5l92 645q0 8 -4 14.5t-18 16.5q-8 6 -33 16t-53 17l10 82h412l-13 -82 q-68 -16 -92 -31q-31 -18 -33 -33l-84 -602q-18 -132 -67 -233q-49 -102 -121 -170q-70 -66 -162 -105q-84 -35 -188 -35q-80 0 -158 25q-77 25 -135 74q-59 49 -92 118q-37 78 -37 162q0 47 10 115l92 651q0 12 -24 31q-22 17 -90 33zM396 1476q4 12 12 29q4 10 10 20.5 t10 18.5l21 37q6 10 9 17t5 11h758l29 -35q-3 -12 -13 -30q-4 -8 -20 -37l-23 -39q-6 -12 -14 -25h-760z" />
<glyph unicode="&#x16b;" horiz-adv-x="1126" d="M18 801l33 13l33 13q16 6 35.5 14.5t40.5 16.5l78 29q14 6 38.5 13t32.5 11q34 12 62 19q27 6 39 6q29 0 39 -18q10 -20 10 -66q0 -29 -6 -76q-10 -72 -15 -100q-8 -55 -18 -115q-4 -25 -10.5 -53.5t-10.5 -58.5l-14 -101q-6 -45 -6 -76q0 -41 16 -67q14 -25 29 -25 q33 0 94 49q59 47 144 160q2 12 7 39t7 43l12 82q2 10 6 34.5l6 37.5q4 45 5 55q0 29 -3 37q-4 16 -8 20t-12 8q-4 2 -14 3q-4 0 -25 -5q-12 -2 -27 -8q-20 -8 -32 -12l-21 78q6 2 64 26q10 4 20 8.5t15.5 7.5t14.5 7t23 8l76 29q14 6 39 14t33 10q31 12 59 19q25 6 39 6 q28 0 37 -18q8 -16 8 -66q0 -41 -4 -70q0 -6 -4 -38.5t-8 -51.5l-19 -98l-16 -100q-4 -18 -8 -52t-4 -41q-4 -29 -4 -77q0 -55 2 -76q2 -18 12 -49q6 -18 16 -25q12 -8 23 -8q27 0 47 6q10 2 57 23l19 -76l-82 -56l-82 -51q-37 -23 -76 -39q-35 -14 -61 -14 q-25 0 -47.5 14.5t-42.5 40.5q-16 23 -35 72q-16 47 -23 96q-35 -47 -82 -90q-31 -29 -92 -69q-35 -23 -94 -48q-41 -16 -90 -16q-27 0 -64 16q-35 16 -61 45q-25 29 -45 78q-16 41 -17 107q0 16 5 69l12 86q4 23 7 45.5t7 45.5l17 90q2 10 6 36.5l6 40.5q4 49 4 62 q0 29 -2 37q-4 14 -10 20q-4 4 -13 8q-4 2 -16 3q-4 0 -24.5 -4.5t-30.5 -8.5l-37 -12zM256 1192q2 4 7 12t7 15q8 18 18 38l21 37l16 29h758l29 -35q-2 -8 -13 -28q-4 -6 -12 -20.5t-10 -18.5q-6 -12 -11.5 -21.5t-9.5 -17.5l-16 -25h-758z" />
<glyph unicode="&#x16c;" horiz-adv-x="1280" d="M158 1178l12 82h504l-10 -82q-72 -16 -97 -31q-35 -18 -37 -33l-88 -604q-4 -16 -8 -57q-2 -18 -2 -56q0 -139 59.5 -204.5t182.5 -65.5q68 0 112.5 24.5t79.5 71.5q31 43 51.5 108.5t28.5 137.5l92 645q0 8 -4 14.5t-18 16.5q-8 6 -33 16t-53 17l10 82h412l-13 -82 q-68 -16 -92 -31q-31 -18 -33 -33l-84 -602q-18 -132 -67 -233q-49 -102 -121 -170q-70 -66 -162 -105q-84 -35 -188 -35q-80 0 -158 25q-77 25 -135 74q-59 49 -92 118q-37 78 -37 162q0 47 10 115l92 651q0 12 -24 31q-22 17 -90 33zM489 1654q4 6 19 21l24 24l10.5 10.5 l12.5 12.5q8 6 20 14q16 -53 41 -80q23 -27 60 -51q25 -18 65 -29q31 -8 64 -8q35 0 69 8q47 10 80 29q41 23 76 51q39 33 65 80q2 -2 7.5 -6t9.5 -8q2 -2 7 -6t9 -8.5t6 -8.5l19 -24q6 -8 14 -21q-41 -88 -84 -137q-53 -59 -100 -90q-59 -39 -101 -51q-53 -16 -90 -17 q-41 0 -90 17q-51 16 -88 51q-43 39 -74 90t-51 137z" />
<glyph unicode="&#x16d;" horiz-adv-x="1126" d="M18 801l33 13l33 13q16 6 35.5 14.5t40.5 16.5l78 29q14 6 38.5 13t32.5 11q34 12 62 19q27 6 39 6q29 0 39 -18q10 -20 10 -66q0 -29 -6 -76q-10 -72 -15 -100q-8 -55 -18 -115q-4 -25 -10.5 -53.5t-10.5 -58.5l-14 -101q-6 -45 -6 -76q0 -41 16 -67q14 -25 29 -25 q33 0 94 49q59 47 144 160q2 12 7 39t7 43l12 82q2 10 6 34.5l6 37.5q4 45 5 55q0 29 -3 37q-4 16 -8 20t-12 8q-4 2 -14 3q-4 0 -25 -5q-12 -2 -27 -8q-20 -8 -32 -12l-21 78q6 2 64 26q10 4 20 8.5t15.5 7.5t14.5 7t23 8l76 29q14 6 39 14t33 10q31 12 59 19q25 6 39 6 q28 0 37 -18q8 -16 8 -66q0 -41 -4 -70q0 -6 -4 -38.5t-8 -51.5l-19 -98l-16 -100q-4 -18 -8 -52t-4 -41q-4 -29 -4 -77q0 -55 2 -76q2 -18 12 -49q6 -18 16 -25q12 -8 23 -8q27 0 47 6q10 2 57 23l19 -76l-82 -56l-82 -51q-37 -23 -76 -39q-35 -14 -61 -14 q-25 0 -47.5 14.5t-42.5 40.5q-16 23 -35 72q-16 47 -23 96q-35 -47 -82 -90q-31 -29 -92 -69q-35 -23 -94 -48q-41 -16 -90 -16q-27 0 -64 16q-35 16 -61 45q-25 29 -45 78q-16 41 -17 107q0 16 5 69l12 86q4 23 7 45.5t7 45.5l17 90q2 10 6 36.5l6 40.5q4 49 4 62 q0 29 -2 37q-4 14 -10 20q-4 4 -13 8q-4 2 -16 3q-4 0 -24.5 -4.5t-30.5 -8.5l-37 -12zM348 1335q4 6 19 21l24 24l10.5 10.5l12.5 12.5q8 6 20 14q16 -53 41 -80q23 -27 60 -51q25 -18 65 -29q31 -8 64 -8q35 0 69 8q47 10 80 29q41 23 76 51q39 33 65 80q2 -2 7.5 -6 t9.5 -8q2 -2 7 -6t9 -8.5t6 -8.5l19 -24q6 -8 14 -21q-41 -88 -84 -137q-53 -59 -100 -90q-59 -39 -101 -51q-53 -16 -90 -17q-41 0 -90 17q-51 16 -88 51q-43 39 -74 90t-51 137z" />
<glyph unicode="&#x16e;" horiz-adv-x="1280" d="M158 1178l12 82h504l-10 -82q-72 -16 -97 -31q-35 -18 -37 -33l-88 -604q-4 -16 -8 -57q-2 -18 -2 -56q0 -139 59.5 -204.5t182.5 -65.5q68 0 112.5 24.5t79.5 71.5q31 43 51.5 108.5t28.5 137.5l92 645q0 8 -4 14.5t-18 16.5q-8 6 -33 16t-53 17l10 82h412l-13 -82 q-68 -16 -92 -31q-31 -18 -33 -33l-84 -602q-18 -132 -67 -233q-49 -102 -121 -170q-70 -66 -162 -105q-84 -35 -188 -35q-80 0 -158 25q-77 25 -135 74q-59 49 -92 118q-37 78 -37 162q0 47 10 115l92 651q0 12 -24 31q-22 17 -90 33zM604 1497q0 47 18 98q16 47 53 94 q31 39 82 70q45 27 101 26q37 0 67 -12q25 -10 49 -35q20 -20 30.5 -51t10.5 -59q0 -49 -20 -97q-25 -57 -55 -92q-37 -43 -84 -69.5t-105 -26.5q-37 0 -65 12q-25 10 -45 35q-20 23 -29 49q-8 25 -8 58zM743 1540q0 -31 14.5 -47.5t32.5 -16.5q14 0 29 10q18 14 24 25 q12 20 17 35q6 23 6 45q0 25 -14 43q-12 16 -31 16t-33 -8q-12 -8 -22 -25q-16 -27 -19 -34q-4 -14 -4 -43z" />
</font>
</defs>
</svg>
